Торренты   
 
 

 

Ворона-проказница в 3Д / Der kleine Rabe Socke 3D (2012) [BDRip, 1080p] Anamorph SideBySide / Горизонтальная анаморфная стереопара

Рейтинг 3D:
9 голосов
7.8
Рейтинг фильма:
9 голосов
7.3
 
Вы должны быть авторизированы,
чтобы ставить оценки


Ворона-проказница в 3Д / Der kleine Rabe Socke 3D
Год выпуска: 2012
Страна: Германия
Жанр: мультфильм, комедия, приключения, семейный
Продолжительность: 01:18:12
Перевод: Профессиональный (Многоголосый закадровый)
Русские субтитры: отсутствуют
Режиссёр: Уте фон Мюнчо-Поль, Сэндор Джесси
Роли озвучивали: Катарина Тальбах, Анна Тальбах, Константин фон Ящерофф, Георг Трифон, Сантьяго Цизмер, Монти Арнольд, Геральд Шаале
Описание: Зок - черная ворона с желтым клювом. Он - главный герой серии детских книг, вышедших в 1996 году и разошедшихся по всему миру большими тиражами. Это первый полнометражный фильм с его участием.


Качество: BDRip (by IgorekSh)
Формат: MKV
Формат 3D: Anamorph SideBySide / Горизонтальная анаморфная стереопара
Видео кодек: AVC
Аудио кодек: AC3
Видео: 1920x1080p, 23.976 fps, AVC, 5793 kbps avg,
Аудио: 48 kHz, AC3 Dolby Digital, 6 ch, 448 kbps

Скриншоты


MediaInfo

Общее
Уникальный идентификатор : 244489629577698553203982102503653867296 (0xB7EEFD6817CF85ACB0FD3D02D53B7F20)
Полное имя : D:\Download\Der kleine Rabe Socke 3D 2012 halfSbS (IgorekSh) [ДОЛОЙ РЕКЛАМУ!].mkv
Формат : Matroska
Версия формата : Version 2
Размер файла : 3,50 Гбайт
Продолжительность : 1 ч. 18 м.
Общий поток : 6401 Кбит/сек
Название фильма : ДОЛОЙ РЕКЛАМУ!
Дата кодирования : UTC 2014-02-05 10:13:33
Программа кодирования : mkvmerge v4.2.0 ('No Talking') сборка от Jul 28 2010 18:38:23
Библиотека кодирования : libebml v1.0.0 + libmatroska v1.0.0
Видео
Идентификатор : 1
Формат : AVC
Формат/Информация : Advanced Video Codec
Профиль формата : High@L4.1
MultiView_Count : 2
MultiView_Layout : Right Eye
Параметр CABAC формата : Да
Параметр ReFrames формата : 4 кадра
Режим смешивания : Header stripping
Идентификатор кодека : V_MPEG4/ISO/AVC
Продолжительность : 1 ч. 18 м.
Битрейт : 5826 Кбит/сек
Ширина : 1920 пикселей
Высота : 1080 пикселей
Соотношение сторон : 16:9
Режим частоты кадров : Постоянный
Частота кадров : 23,976 кадра/сек
Цветовое пространство : YUV
Субдискретизация насыщенности : 4:2:0
Битовая глубина : 8 бит
Тип развёртки : Прогрессивная
Бит/(Пиксели*Кадры) : 0.117
Размер потока : 3,18 Гбайт (91%)
Заголовок : IgorekSh [ДОЛОЙ РЕКЛАМУ!]
Библиотека кодирования : x264 core 130 r2273 b3065e6
Настройки программы : cabac=1 / ref=4 / deblock=1:-1:-1 / analyse=0x3:0x133 / me=umh / subme=7 / psy=1 / psy_rd=1.00:0.15 / mixed_ref=1 / me_range=16 / chroma_me=1 / trellis=1 / 8x8dct=1 / cqm=0 / deadzone=21,11 / fast_pskip=0 / chroma_qp_offset=-3 / threads=9 / lookahead_threads=1 / sliced_threads=0 / nr=0 / decimate=1 / interlaced=0 / bluray_compat=0 / constrained_intra=0 / bframes=3 / b_pyramid=2 / b_adapt=1 / b_bias=0 / direct=1 / weightb=1 / open_gop=0 / weightp=2 / keyint=250 / keyint_min=23 / scenecut=40 / intra_refresh=0 / rc_lookahead=40 / rc=crf / mbtree=1 / crf=20.0 / qcomp=0.60 / qpmin=0 / qpmax=69 / qpstep=4 / ip_ratio=1.40 / aq=1:0.00
Язык : German
Default : Да
Forced : Нет
Аудио
Идентификатор : 2
Формат : AC-3
Формат/Информация : Audio Coding 3
Расширение режима : CM (complete main)
Параметр Endianness формата : Big
Режим смешивания : Header stripping
Идентификатор кодека : A_AC3
Продолжительность : 1 ч. 18 м.
Вид битрейта : Постоянный
Битрейт : 448 Кбит/сек
Каналы : 6 каналов
Расположение каналов : Front: L C R, Side: L R, LFE
Частота : 48,0 КГц
Битовая глубина : 16 бит
Метод сжатия : С потерями
Размер потока : 251 Мбайт (7%)
Заголовок : MVO [ДОЛОЙ РЕКЛАМУ!]
Язык : Russian
Default : Да
Forced : Нет
26.02.2014. Релиз обновлён - убрал немецкую дорожку в формате DTS.
Желающие, скачайте заново торрент-файл.
Благодарности релизеру (15)

Торрент:

Статус:

Размер:

Зарегистрирован   [ 2014-02-26 21:00 ]

проверено

3.5 GB