Торренты   
 
 

 

Тор 2: Царство тьмы / Thor: The Dark World (Алан Тейлор) [2013 г., Фэнтези, боевик, приключения, BDRip 1080p] Anamorph SideBySide

Рейтинг 3D:
208 голосов
7.2
Рейтинг фильма:
211 голосов
7.8
 
Вы должны быть авторизированы,
чтобы ставить оценки


(с) Закрыто правообладателем
Тор 2: Царство тьмы / Thor: The Dark World
Год выпуска: 2013
Страна: США, Marvel Entertainment, Marvel Studios Inc.
Жанр: Фэнтези, боевик, приключения,
Продолжительность: 01:52:04
Перевод: Дубляж, Чистый звук
Субтитры: Русские, English
Режиссер: Алан Тейлор
Продюссер: Виктория Алонсо, Луис Д’Эспозито, Кевин Файги
Сценарий: Кристофер Йост, Кристофер Маркус, Стивен МакФили,
Бюджет: $170 000 000
Премьера в мире: 30 октября 2013

В ролях: Крис Хемсворт, Натали Портман, Том Хиддлстон, Энтони Хопкинс, Джейми Александер, Рэй Стивенсон, Кэт Деннингс, Идрис Эльба, Стеллан Скарсгард, Рене Руссо, Кристофер Экклстон, Стэн Ли
Роли дублировали: Иван Жарков, Татьяна Шитова, Александр Гаврилин, Рудольф Панков, Валерий Сторожик,
Описание: Тору предстоит сразиться за спасение Земли и Девяти Миров от таинственного врага из времен, предшествовавших возникновению вселенной. После событий «Тора» и «Мстителей» главный герой борется за восстановление порядка в космосе, но древняя раса во главе с мстительным Малекитом возвращается, чтобы погрузить вселенную обратно во тьму. Столкнувшись с врагом, которому не способен противостоять ни Один, ни весь Асгард, Тор отправляется в самое рискованное путешествие, которое воссоединит его с Джейн Фостер с Земли и заставит пожертвовать всем ради спасения вселенной.
Доп. информация: Формат 3D: Half SideBySide /Горизонтальная анаморфная стереопара
Порядок ракурсов: левый ракурс первый
Качество: BDRip 1080p
Формат: MKV
Видео кодек: H.264
Аудио кодек: AC3
Видео: (x264 L4.1), 1920 x 1080 (16:9), 11,7 Mbps, 23,976 fps, ( 0.235 bit/pixel)
Аудио#1: RUS: AC3, 48.0 KHz, 6 ch, 448 kbps
Аудио#2: ENG: AC3, 48.0 KHz, 6 ch, 448 kbps

Скриншоты

MediaInfo

Общее
Уникальный идентификатор : 246264391349066823096253044750114294909 (0xB944CBEAEEE79FC59C5CEE1D0EB70C7D)
Полное имя : E:\Thor.The.Dark.World.2013.HSBS.3D.BDRip.1080p.mkv
Формат : Matroska
Версия формата : Version 4 / Version 2
Размер файла : 10,0 Гбайт
Продолжительность : 1 ч. 52 м.
Общий поток : 12,8 Мбит/сек
Название фильма : Тор 2: Царство тьмы / Thor: The Dark World (2013) BDRip 1080р | 3D (HSBS)
Дата кодирования : UTC 2014-02-07 11:28:52
Программа кодирования : mkvmerge v6.2.0 ('Promised Land') built on Apr 28 2013 12:22:01
Библиотека кодирования : libebml v1.3.0 + libmatroska v1.4.0
Видео
Идентификатор : 1
Формат : AVC
Формат/Информация : Advanced Video Codec
Профиль формата : High@L4.1
MultiView_Count : 2
MultiView_Layout : Side by Side (left eye first)
Параметр CABAC формата : Да
Параметр ReFrames формата : 2 кадра
Идентификатор кодека : V_MPEG4/ISO/AVC
Продолжительность : 1 ч. 52 м.
Битрейт : 11,7 Мбит/сек
Ширина : 1920 пикс.
Высота : 1080 пикс.
Соотношение сторон : 16:9
Режим частоты кадров : Постоянный
Частота кадров : 23,976 кадр/сек
Цветовое пространство : YUV
Подвыборка цветности : 4:2:0
Битовая глубина : 8 бит
Тип развёртки : Прогрессивная
Бит/(Пиксели*Кадры) : 0.235
Размер потока : 9,14 Гбайт (91%)
Заголовок : Thor.The.Dark.World.2013.x264.HSBS.3D.BDRip.1080p.mkv
Библиотека кодирования : x264 core
Язык : English
Default : Да
Forced : Нет
Основные цвета : BT.709
Характеристики трансфера : BT.709
Коэффициенты матрицы : BT.709
Аудио #1
Идентификатор : 2
Формат : AC-3
Формат/Информация : Audio Coding 3
Расширение режима : CM (complete main)
Параметр Endianness формата : Big
Идентификатор кодека : A_AC3
Продолжительность : 1 ч. 52 м.
Вид битрейта : Постоянный
Битрейт : 448 Кбит/сек
Каналы : 6 каналов
Расположение каналов : Front: L C R, Side: L R, LFE
Частота : 48,0 КГц
Битовая глубина : 16 бит
Метод сжатия : С потерями
Задержка видео : 12 мс.
Размер потока : 359 Мбайт (3%)
Заголовок : Дубляж (Line) АС3 5.1
Язык : Russian
Default : Да
Forced : Да
Аудио #2
Идентификатор : 3
Формат : AC-3
Формат/Информация : Audio Coding 3
Расширение режима : CM (complete main)
Параметр Endianness формата : Big
Идентификатор кодека : A_AC3
Продолжительность : 1 ч. 52 м.
Вид битрейта : Постоянный
Битрейт : 448 Кбит/сек
Каналы : 6 каналов
Расположение каналов : Front: L C R, Side: L R, LFE
Частота : 48,0 КГц
Битовая глубина : 16 бит
Метод сжатия : С потерями
Размер потока : 359 Мбайт (3%)
Заголовок : Original
Язык : English
Default : Нет
Forced : Нет
Текст #1
Идентификатор : 4
Формат : UTF-8
Идентификатор кодека : S_TEXT/UTF8
Идентификатор кодека/Информация : UTF-8 Plain Text
Заголовок : Forced
Язык : Russian
Default : Да
Forced : Да
Текст #2
Идентификатор : 5
Формат : UTF-8
Идентификатор кодека : S_TEXT/UTF8
Идентификатор кодека/Информация : UTF-8 Plain Text
Заголовок : Full
Язык : Russian
Default : Нет
Forced : Нет
Текст #3
Идентификатор : 6
Формат : UTF-8
Идентификатор кодека : S_TEXT/UTF8
Идентификатор кодека/Информация : UTF-8 Plain Text
Заголовок : SDH
Язык : English
Default : Нет
Forced : Нет
Меню
00:00:00.000 : en:Prologue
00:06:13.665 : en:The Nine Realms At Peace
00:13:05.535 : en:Strange Happenings In London
00:18:40.995 : en:The Aether Awakens
00:24:56.829 : en:Welcome To Asgard
00:29:07.663 : en:The Last Of The Kursed
00:41:33.366 : en:Attack On Asgard
00:49:40.227 : en:We Are Not Immortal
00:55:56.144 : en:Desperate Times
01:00:08.897 : en:Escape From Asgard
01:08:12.672 : en:Brothers In Arms
01:12:39.897 : en:Return To The Dark World
01:21:34.473 : en:Follow The Signs
01:26:22.094 : en:Thor vs. Malekith vs. The Convergence
01:33:58.800 : en:The Aether Unleashed
01:38:31.656 : en:Born To Be A King
01:41:49.520 : en:End Credits
Остальные раздачи этого фильма (5)
Благодарности релизеру (60)

Торрент:

Статус:

Размер:

Зарегистрирован   [ 2014-02-07 18:52 ]

© закрыто правообладателем

10.04 GB

 
 Мнение о фильме (60)

Пред.  1, 2, 3  След.






Комп-HDMI-Media Player Classic-включаешь в настройках(video frame-stretch to window),затем волшебные клавиши в секторе numlock(4-5-6)6-растянуть по ширине,без искажений,с частичной потерей картинки.Смотрю только так никаких полос.Благодарю раздающих за такие релизы.
 

спасибо!!!
 

Попробовал с MPC (4-5-6) действительно ) можно смотреть без полос не дожидаясь Кропа фильма
Тоже самое всегда делаю в KMP c обычными 2D фильмами масштабирую убираю черные полосы, также в KMP можно и растягивать (Ctrl+4, +6 или +8 +2) по сторонам такие релизы 3D ) и как понимаю качество картинки будет выше по вертикали
 

при просмотре через dlna в телеке нет субтитров - при просмотре с флэшки через usb - субтитры есть, фильм так себе - зажрались-нет как раньше ощущения чего то супер-мега ВАУ!!!
 

Соглашусь с slan82, картинка размытая, эффекты 3D не "ярко выраженные", от сценария много ожидать не стоит, фильм изначально по мотивам комиксов снят, но несколько сюжетных задумок мне понравились... Посмотреть стоит.
 

Гораздо хуже первой части и 3Д никакое.Раздающему спасибо
 

Фильм на любителя.
 

Фильм понравился, с удовольствием посмотрели всей семьёй. Предварительно рекомендую посмотреть первую часть.
 

первая часть была лучше,я ожидала,что вторая будет классной.а меня не впечатлило.фильм так себе.3д вообще нет.таких 3д фильмов как аватар или гнев титанов эти фильмы куда интереснее смотреть и иногда повторно их хочется посмотреть.а в торе такое ощущение ,что нужно еще и третью часть ожидать???
 

АНЖЕЛА там чутли не в открытую сказано в конце фильма про 3 часть) верней показанно)
 

Понравилось) Правда временами откровенно веселился- чуток нестыковочки были в поведении ГГ, но- вполне достойное продолжение, 3Д - нормальная глубина, вылетов практически не было, НО четкость картинки и звук- просто супер!
Фильм для тех- кто верен комиксам всегда)
 

Мне не понравилось спасибо
 

Отличный фильм. Красиво снято! Хорошее 3Д. Отличный звук! Первый раз я был рад, что установил 5 канальную систему. Звуковое пространство как в кинотеатре!
 

Фильм хороший, понравился, но 3d слабенькое !
 

3Д не Впечатлило совсем,а вот сам фильм понравился очень.Спасибо огромное за релиз.
 

3д хорошее. Фильм на любителя. Мне понравился. Спасибо.
 
Виталий Цыганов Профиль 19-Фев-2014 15:42

Сюжет фильма я думаю вполне достойный для поклонников, а вот 3Д могло быть и лучше я ожидал качества, не хуже 1 части.
 

ФИЛЬМ ОЧЕНЬ ЗРЕЛЕЩНЫЙ! СМОТРЕЛ В КИНОТЕАТРЕ - ТЕПЕРЬ, ДОМА ПОСМОТРЮ :)
 

Классный фильм,3D неплохое
 

Фильм хороший, с продолжением, 3D так себе.
 

Страница 2 из 3

Пред.  1, 2, 3  След.