Торренты   
 
 

 

Гравитация / Gravity (Альфонсо Куарон) [2013 г., Anamorph OverUnder]

Рейтинг 3D:
77 голосов
8.3
Рейтинг фильма:
77 голосов
7.9
 
Вы должны быть авторизированы,
чтобы ставить оценки


Гравитация / Gravity
Год выпуска: 2013
Страна: США
Жанр: Фантастика, Триллер, Драма
Продолжительность: 01:30:58
Перевод: Профессиональный (полное дублирование)
Режиссер: Альфонсо Куарон
В ролях: Сандра Буллок, Джордж Клуни, Эд Харрис, Орто Игнатиуссен, Фалдут Шарма, Эми Уоррен, Башер Саваж, Дженис Ахерн
Описание: Доктор Райан Стоун, блестящий специалист в области медицинского инжиниринга, отправляется в свою первую космическую миссию под командованием ветерана астронавтики Мэтта Ковальски, для которого этот полет — последний перед отставкой. Но во время, казалось бы, рутинной работы за бортом случается катастрофа.
Шаттл уничтожен, а Стоун и Ковальски остаются совершенно одни; они находятся в связке друг с другом, и все, что они могут, — это двигаться по орбите в абсолютно черном пространстве без всякой связи с Землей и какой-либо надежды на спасение.
Доп. информация: Качество: BDRip (1080p)
Видео: MPEG-4 AVC, 12.1 Мбит/с, 1920x1080, 23.976 кадр/с
Аудио: Русский (AC3, 6 ch, 384 Кбит/с), английский (DTS, 6 ch, 1510 Кбит/с)
Формат 3D: Anamorph OverUnder

MediaInfo

Unique ID : 254469975370661390955301681754371717918 (0xBF712271F5A18E15B9A2498B6B56FB1E)
Complete name : D:\Gravity.3D.2013.1080p.BluRay.Half-OU.mkv
Format : Matroska
File size : 9.08 GiB
Duration : 1h 30mn
Overall bit rate : 14.3 Mbps
Encoded date : UTC 2014-02-07 14:07:56
Writing application : mkvmerge v6.7.0 ('Back to the Ground') 32bit built on Jan 8 2014 15:03:17
Writing library : libebml v1.3.0 + libmatroska v1.4.1
Video
ID : 1
Format : AVC
Format/Info : Advanced Video Codec
Format profile : High@L4.1
Format settings, CABAC : Yes
Format settings, ReFrames : 2 frames
Format settings, GOP : M=3, N=24
Codec ID : V_MPEG4/ISO/AVC
Duration : 1h 30mn
Bit rate : 12.1 Mbps
Width : 1 920 pixels
Height : 1 080 pixels
Display aspect ratio : 16:9
Frame rate : 23.976 fps
Color space : YUV
Chroma subsampling : 4:2:0
Bit depth : 8 bits
Scan type : Progressive
Bits/(Pixel*Frame) : 0.244
Stream size : 7.69 GiB (85%)
Writing library : x264 core
Language : English
Color primaries : BT.709-5, BT.1361, IEC 61966-2-4, SMPTE RP177
Transfer characteristics : BT.709-5, BT.1361
Matrix coefficients : BT.709-5, BT.1361, IEC 61966-2-4 709, SMPTE RP177
Audio #1
ID : 2
Format : AC-3
Format/Info : Audio Coding 3
Mode extension : CM (complete main)
Codec ID : A_AC3
Duration : 1h 30mn
Bit rate mode : Constant
Bit rate : 384 Kbps
Channel(s) : 6 channels
Channel positions : Front: L C R, Side: L R, LFE
Sampling rate : 48.0 KHz
Bit depth : 16 bits
Compression mode : Lossy
Stream size : 250 MiB (3%)
Language : Russian
Audio #2
ID : 3
Format : DTS
Format/Info : Digital Theater Systems
Codec ID : A_DTS
Duration : 1h 30mn
Bit rate mode : Constant
Bit rate : 1 510 Kbps
Channel(s) : 6 channels
Channel positions : Front: L C R, Side: L R, LFE
Sampling rate : 48.0 KHz
Bit depth : 16 bits
Compression mode : Lossy
Stream size : 982 MiB (11%)
Language : English
Menu
00:00:00.000 : en:00:00:00.000
00:13:08.830 : en:00:13:08.830
00:21:33.542 : en:00:21:33.542
00:29:12.668 : en:00:29:12.668
00:39:59.856 : en:00:39:59.856
00:48:49.051 : en:00:48:49.051
00:57:00.667 : en:00:57:00.667
01:08:08.418 : en:01:08:08.418
01:15:27.148 : en:01:15:27.148
01:23:50.567 : en:01:23:50.567

Скриншоты



Благодарности релизеру (74)

Торрент:

Статус:

Размер:

Зарегистрирован   [ 2014-02-08 03:01 ]

поглощено

9.08 GB