Торренты   
 
 

 

Тор 2: Царство тьмы / Thor: The Dark World (Алан Тейлор) [2013 г., Anamorph OverUnder]

Рейтинг 3D:
208 голосов
7.2
Рейтинг фильма:
211 голосов
7.8
 
Вы должны быть авторизированы,
чтобы ставить оценки



Тор 2: Царство тьмы / Thor: The Dark World

Год выпуска: 2013
Страна: США (Marvel Studios)
Жанр: фэнтези, боевик, приключения
Продолжительность: 01:52:03
Перевод: Профессиональный (полное дублирование)
Режиссер: Алан Тейлор
В ролях: Крис Хемсворт, Натали Портман, Том Хиддлстон, Энтони Хопкинс, Кэт Деннингс, Крис О’Дауд, Идрис Эльба
Описание: Продолжение приключений одного из членов команды Мстителей, скандинавского бога Тора, которому на этот раз в одиночку предстоит защитить Землю и все девять миров от нашествия неизвестного врага.
Могучему Тору предстоит вновь сразиться за восстановление порядка в галактике, встретившись лицом к лицу с древней инопланетной расой, ведомой злодеем Малекитом, жаждущим установить в девяти мирах власть тьмы. Столкнувшись с врагом, более могущественным чем сам Один и всё воинство Асгарда, Тор должен собрать силы для решающей битвы. Его ждёт опасное путешествие и долгожданная встреча со своей земной возлюбленной Джейн Фостер. Сможет ли Тор рискнуть самым дорогим, чтобы не дать тьме воцариться на просторах вселенной?
Качество: BDrip
Контейнер: MKV
Формат 3D: Anamorph OverUnder / Вертикальная анаморфная стереопара
Видео кодек: x264
Аудио кодек: AC-3
Видео: AVC, High@L4.1, 1920х1080, 23,976 кадра/сек, 6656 Кбит/сек
Аудио:
#1 - Русский / AC3 / 48 KHz / 5.1 ch / 640 Kbps (Дубляж)
#2 - Английский / AC3 / 48 KHz / 5.1 ch / 640 Kbps (Original)
Субтитры:
#1 - Русские Форсированные (на эльфийскую речь)
#2 - Русские Полные (c эльфийской речью)
#3 - English Forced
#4 - English SDH

Скриншоты

Media Info

Общее
Уникальный идентификатор : 225724203241148690148774841412573187208 (0xA9D0E674C9217D06881CEA27DEBFCC88)
Полное имя : H:\Source\Thor.TheDarkWorld.3D.2013.BD3DRip.Half.OU.x264.AC3.(itsamna).mkv
Формат : Matroska
Версия формата : Version 4 / Version 2
Размер файла : 6,34 Гбайт
Продолжительность : 1 ч. 52 м.
Общий поток : 8097 Кбит/сек
Название фильма : Thor: The Dark World (2013) 3D
Дата кодирования : UTC 2014-02-14 20:16:47
Программа кодирования : mkvmerge v6.3.0 ('You can't stop me!') built on Jul 19 2013 16:27:38
Библиотека кодирования : libebml v1.3.0 + libmatroska v1.4.1
Видео
Идентификатор : 1
Формат : AVC
Формат/Информация : Advanced Video Codec
Профиль формата : High@L4.1
Параметр CABAC формата : Да
Параметр ReFrames формата : 4 кадра
Идентификатор кодека : V_MPEG4/ISO/AVC
Продолжительность : 1 ч. 52 м.
Битрейт : 6656 Кбит/сек
Ширина : 1920 пикселей
Высота : 1080 пикселей
Соотношение сторон : 16:9
Режим частоты кадров : Постоянный
Частота кадров : 23,976 кадра/сек
Цветовое пространство : YUV
Субдискретизация насыщенности : 4:2:0
Битовая глубина : 8 бит
Тип развёртки : Прогрессивная
Бит/(Пиксели*Кадры) : 0.134
Размер потока : 5,21 Гбайт (82%)
Библиотека кодирования : x264 core 130 r2273 b3065e6
Настройки программы : cabac=1 / ref=4 / deblock=1:-3:-3 / analyse=0x3:0x133 / me=umh / subme=10 / psy=1 / psy_rd=1.00:0.15 / mixed_ref=1 / me_range=32 / chroma_me=1 / trellis=2 / 8x8dct=1 / cqm=0 / deadzone=21,11 / fast_pskip=0 / chroma_qp_offset=-3 / threads=12 / lookahead_threads=2 / sliced_threads=0 / nr=0 / decimate=1 / interlaced=0 / bluray_compat=0 / constrained_intra=0 / bframes=8 / b_pyramid=2 / b_adapt=2 / b_bias=0 / direct=3 / weightb=1 / open_gop=0 / weightp=2 / keyint=250 / keyint_min=23 / scenecut=40 / intra_refresh=0 / rc_lookahead=60 / rc=crf / mbtree=1 / crf=16.0 / qcomp=0.60 / qpmin=0 / qpmax=69 / qpstep=4 / vbv_maxrate=50000 / vbv_bufsize=62500 / crf_max=0.0 / nal_hrd=none / ip_ratio=1.40 / aq=1:0.90
Default : Да
Forced : Нет
Аудио #1
Идентификатор : 2
Формат : AC-3
Формат/Информация : Audio Coding 3
Расширение режима : CM (complete main)
Параметр Endianness формата : Big
Идентификатор кодека : A_AC3
Продолжительность : 1 ч. 52 м.
Вид битрейта : Постоянный
Битрейт : 640 Кбит/сек
Каналы : 6 каналов
Расположение каналов : Front: L C R, Side: L R, LFE
Частота : 48,0 КГц
Битовая глубина : 16 бит
Метод сжатия : С потерями
Размер потока : 513 Мбайт (8%)
Язык : Russian
Default : Да
Forced : Нет
Аудио #2
Идентификатор : 3
Формат : AC-3
Формат/Информация : Audio Coding 3
Расширение режима : CM (complete main)
Параметр Endianness формата : Big
Идентификатор кодека : A_AC3
Продолжительность : 1 ч. 52 м.
Вид битрейта : Постоянный
Битрейт : 640 Кбит/сек
Каналы : 6 каналов
Расположение каналов : Front: L C R, Side: L R, LFE
Частота : 48,0 КГц
Битовая глубина : 16 бит
Метод сжатия : С потерями
Размер потока : 513 Мбайт (8%)
Заголовок : Original - BD 3D
Язык : English
Default : Нет
Forced : Нет
Текст #1
Идентификатор : 4
Формат : UTF-8
Идентификатор кодека : S_TEXT/UTF8
Идентификатор кодека/Информация : UTF-8 Plain Text
Заголовок : Форсированные (на эльфийскую речь)
Язык : Russian
Default : Да
Forced : Нет
Текст #2
Идентификатор : 5
Формат : UTF-8
Идентификатор кодека : S_TEXT/UTF8
Идентификатор кодека/Информация : UTF-8 Plain Text
Заголовок : Полные (с эльфийской речью) i-фицированные
Язык : Russian
Default : Нет
Forced : Нет
Текст #3
Идентификатор : 6
Формат : UTF-8
Идентификатор кодека : S_TEXT/UTF8
Идентификатор кодека/Информация : UTF-8 Plain Text
Заголовок : Forced
Язык : English
Default : Нет
Forced : Нет
Текст #4
Идентификатор : 7
Формат : UTF-8
Идентификатор кодека : S_TEXT/UTF8
Идентификатор кодека/Информация : UTF-8 Plain Text
Заголовок : SDH
Язык : English
Default : Нет
Forced : Нет
Меню
00:00:00.000 : :1. Prologue
00:06:13.665 : :2. The Nine Realms At Peace
00:13:05.535 : :3. Strange Happenings In London
00:18:40.995 : :4. The Aether Awakens
00:24:56.829 : :5. Welcome To Asgard
00:29:07.663 : :6. The Last Of The Kursed
00:41:33.366 : :7. Attack On Asgard
00:49:40.227 : :8. We Are Not Immortal
00:55:56.144 : :9. Desperate Times
01:00:08.897 : :10. Escape From Asgard
01:08:12.672 : :11. Brothers In Arms
01:12:39.897 : :12. Return To The Dark World
01:21:34.473 : :13. Follow The Signs
01:26:23.095 : :14. Thor vs. Malekith vs. The Convergence
01:33:58.800 : :15. The Aether Unleashed
01:38:31.656 : :16. Born To Be A King
01:41:49.520 : :17. End Credits
--Релиз группы:

Проверено на встроенном плейере ТВ LG 42LW4500--15.02.2014. Релиз обновлён - русская дорога заменена на лицензию.
Желающие, скачайте заново торрент-файл.
Остальные раздачи этого фильма (5)
Благодарности релизеру (51)

Торрент:

Статус:

Размер:

Зарегистрирован   [ 2014-02-15 01:19 ]

проверено

6.34 GB

 
 Мнение о фильме (60)

1, 2, 3  След.






Сказка она везде сказка,нормально.
 

Смотрел в кинотеатре.Скажу честно - 3Д не впечатлило,и сама картинка темная,что соответствует названию.Спецэффекты,динамика - все на высоте.Ожидал большего.ИМХО.
 

"смотрел в кинотеатре" - Вы про что пишите? про Ваш кинотеатр или про данный релиз?
 
Инспектор1234 Профиль 08-Фев-2014 00:41

Не хуже 1 части (но и не лучше ), хорошая сказка с уклоном в научную фантастику о высокотехнологичных цивилизациях (как в "Человек из стали").Эффекты на высоте , правда фильм действительно темноват . Довольно неплохо , фильм смотреть до конца финальных титров , есть 2 вставки .
 
евгения мурашко Профиль 08-Фев-2014 04:26

Хороший фильм.СПАСИБО)))
 

качество на 4, фильм на 5.
 

3D очень слабое самое по себе.(я не говорю а вылетах)! за весь фильм вылетел лиш молот и то чуть чуть. 3D тут вообще не к чему, использование этого формата не оправдано.
 

Фильм понравился!!!! А вот перевод местами отсутствует. И, действительно, много темных сцен... Но это уже не в релизе проблема.
 

Фильм смотрел 2 раз. В кинотеатре и данный релиз. 3д данного релиза ничем не хуже, чем в кинотеатре. Сам фильм мне очень понравился, рекомендую к просмотру. За качество данного релиза и оперативность огромное спасибо!
 

Красивый фильм, хороший саундтрек, содержание примитивное. Для вечернего семейного просмотра с детьми самое оно. Озвучка без замечаний, отсутствие перевода в сценах с титрами вполне оправдано сюжетом.
 

Подожду нормального звука. Смотрел в кино. Мне показалось чуть лучше первой части. Смело можно смотреть в 2Д. Фильм понравится фанатам MARVEL.
 

Считаю неуместным, делать заявлений по поводу фильма. Если смотришь всю эту сагу о мстителя, то франшизы об отдельных героях ну никак нельзя пропускать, какие бы они не были.
А если это первый фильм серии, так какая разница, тогда ты киноман посредственный и тебе все равно за чем убить пару часов.
 

Классный фильм, но 3D явно лишнее, посмотрев в 2D ничего не потеряешь.
 

Нормальный фильм. Спасибо.
 

Мне не понравилось, сценарий не продуманный, картика размытая, 3D эффекты не сильно.
 

Фильм, так себе. 3Д в первой части мне показалось получше.
 

Топик был перенесен из форума 3D Мультфильмы в форум 3D Фильмы

Oreon
 

Ожидал что будет лучше первой части
 

из-за невнимательности скачал данный экземпляр
естественно на встроенном плеере ТВ не посмотреть, к слову сказать иногда смотрю с компа по HDMI и решил попробовать с этим экземпляром, включил его в KMP, картинка была почти квадратной из-за размера и черными полями по бокам, затем я включил воспроизведение с растягиванием до размеров экрана Ctrl+Enter и получил картинку без полей, правда изображение стало немного вытянутое по вертикали (как бывает если смотреть анаморф 16:9 на экране 4:3 ))
Однако 3D сохранилось, забавно )
 

дубль
 

Страница 1 из 3

1, 2, 3  След.