Торренты   
 
 

 

Гравитация / Gravity (Альфонсо Куарон) [2013 г., Anamorph OverUnder]

Рейтинг 3D:
349 голосов
7.8
Рейтинг фильма:
347 голосов
7.6
 
Вы должны быть авторизированы,
чтобы ставить оценки


Гравитация / Gravity Год выпуска: 2013
Страна: США, Великобритания
Жанр: фантастика, триллер, драма
Продолжительность: 01:30:58
Перевод: Профессиональный (полное дублирование)
Режиссер: Альфонсо Куарон
В ролях: Сандра Баллок, Джордж Клуни, Эд Харрис, Эрик Мишелс, Башер Саваж
Описание: Доктор Райан Стоун, блестящий специалист в области медицинского инжиниринга, отправляется в свою первую космическую миссию под командованием ветерана астронавтики Мэтта Ковальски, для которого этот полет — последний перед отставкой. Но во время, казалось бы, рутинной работы за бортом случается катастрофа.
Шаттл уничтожен, а Стоун и Ковальски остаются совершенно одни; они находятся в связке друг с другом, и все, что они могут, — это двигаться по орбите в абсолютно черном пространстве без всякой связи с Землей и какой-либо надежды на спасение.
Качество: BDrip
Контейнер: MKV
Формат 3D: Anamorph OverUnder / Вертикальная анаморфная стереопара
Видео кодек: x264
Аудио кодек: AC-3
Видео: AVC, High@L4.1, 1920х1080, 23,976 кадра/сек, 11,7 Мбит/сек
Аудио:
#1 - Русский / AC3 / 48 KHz / 5.1 ch / 448 Kbps (Дубляж CEE)
#2 - Украинский / AC3 / 48 KHz / 5.1 ch / 448 Kbps (Дубляж - CEE)
#3 - Английский / AC3 / 48 KHz / 5.1 ch / 640 Kbps (Original)
Субтитры:
#1 - Русские Форсированные (включены по умолчанию)
#2 - Русские Полные
#3 - Украинские Форсированные
#4 - Украинские Полные
#5 - English SDH

Скриншоты

Media Info

Общее
Уникальный идентификатор : 219069008197670320494364453141591879856 (0xA4CF2801CD8D2D4AACEDA2B4BAD3F0B0)
Полное имя : H:\Source\Gravity.3D.32013.BDrip.Half.OU.x264.AC3.(itsamna).mkv
Формат : Matroska
Версия формата : Version 4 / Version 2
Размер файла : 8,58 Гбайт
Продолжительность : 1 ч. 30 м.
Общий поток : 13,5 Мбит/сек
Название фильма : Gravity (2013) 3D
Дата кодирования : UTC 2014-02-14 14:07:26
Программа кодирования : mkvmerge v6.3.0 ('You can't stop me!') built on Jul 19 2013 16:27:38
Библиотека кодирования : libebml v1.3.0 + libmatroska v1.4.1
Видео
Идентификатор : 1
Формат : AVC
Формат/Информация : Advanced Video Codec
Профиль формата : High@L4.1
Параметр CABAC формата : Да
Параметр ReFrames формата : 4 кадра
Идентификатор кодека : V_MPEG4/ISO/AVC
Продолжительность : 1 ч. 30 м.
Битрейт : 11,7 Мбит/сек
Ширина : 1920 пикселей
Высота : 1080 пикселей
Соотношение сторон : 16:9
Режим частоты кадров : Постоянный
Частота кадров : 23,976 кадра/сек
Цветовое пространство : YUV
Субдискретизация насыщенности : 4:2:0
Битовая глубина : 8 бит
Тип развёртки : Прогрессивная
Бит/(Пиксели*Кадры) : 0.235
Размер потока : 7,44 Гбайт (87%)
Библиотека кодирования : x264 core 130 r2273 b3065e6
Настройки программы : cabac=1 / ref=4 / deblock=1:-3:-3 / analyse=0x3:0x133 / me=umh / subme=10 / psy=1 / psy_rd=1.00:0.15 / mixed_ref=1 / me_range=32 / chroma_me=1 / trellis=2 / 8x8dct=1 / cqm=0 / deadzone=21,11 / fast_pskip=0 / chroma_qp_offset=-3 / threads=12 / lookahead_threads=2 / sliced_threads=0 / nr=0 / decimate=1 / interlaced=0 / bluray_compat=0 / constrained_intra=0 / bframes=8 / b_pyramid=2 / b_adapt=2 / b_bias=0 / direct=3 / weightb=1 / open_gop=0 / weightp=2 / keyint=250 / keyint_min=23 / scenecut=40 / intra_refresh=0 / rc_lookahead=60 / rc=crf / mbtree=1 / crf=18.0 / qcomp=0.60 / qpmin=0 / qpmax=69 / qpstep=4 / vbv_maxrate=50000 / vbv_bufsize=62500 / crf_max=0.0 / nal_hrd=none / ip_ratio=1.40 / aq=1:0.90
Default : Да
Forced : Нет
Аудио #1
Идентификатор : 2
Формат : AC-3
Формат/Информация : Audio Coding 3
Расширение режима : CM (complete main)
Параметр Endianness формата : Big
Идентификатор кодека : A_AC3
Продолжительность : 1 ч. 30 м.
Вид битрейта : Постоянный
Битрейт : 448 Кбит/сек
Каналы : 6 каналов
Расположение каналов : Front: L C R, Side: L R, LFE
Частота : 48,0 КГц
Битовая глубина : 16 бит
Метод сжатия : С потерями
Размер потока : 292 Мбайт (3%)
Заголовок : Дубляж
Язык : Russian
Default : Да
Forced : Нет
Аудио #2
Идентификатор : 3
Формат : AC-3
Формат/Информация : Audio Coding 3
Расширение режима : CM (complete main)
Параметр Endianness формата : Big
Идентификатор кодека : A_AC3
Продолжительность : 1 ч. 30 м.
Вид битрейта : Постоянный
Битрейт : 448 Кбит/сек
Каналы : 6 каналов
Расположение каналов : Front: L C R, Side: L R, LFE
Частота : 48,0 КГц
Битовая глубина : 16 бит
Метод сжатия : С потерями
Размер потока : 292 Мбайт (3%)
Язык : Ukrainian
Default : Нет
Forced : Нет
Аудио #3
Идентификатор : 4
Формат : AC-3
Формат/Информация : Audio Coding 3
Расширение режима : CM (complete main)
Параметр Endianness формата : Big
Идентификатор кодека : A_AC3
Продолжительность : 1 ч. 30 м.
Вид битрейта : Постоянный
Битрейт : 640 Кбит/сек
Каналы : 6 каналов
Расположение каналов : Front: L C R, Side: L R, LFE
Частота : 48,0 КГц
Битовая глубина : 16 бит
Метод сжатия : С потерями
Размер потока : 416 Мбайт (5%)
Заголовок : Original - BD 3D
Язык : English
Default : Нет
Forced : Нет
Текст #1
Идентификатор : 5
Формат : UTF-8
Идентификатор кодека : S_TEXT/UTF8
Идентификатор кодека/Информация : UTF-8 Plain Text
Заголовок : Форсированные
Язык : Russian
Default : Да
Forced : Нет
Текст #2
Идентификатор : 6
Формат : UTF-8
Идентификатор кодека : S_TEXT/UTF8
Идентификатор кодека/Информация : UTF-8 Plain Text
Заголовок : Форсированные
Язык : Ukrainian
Default : Нет
Forced : Нет
Текст #3
Идентификатор : 7
Формат : UTF-8
Идентификатор кодека : S_TEXT/UTF8
Идентификатор кодека/Информация : UTF-8 Plain Text
Заголовок : full
Язык : Russian
Default : Нет
Forced : Нет
Текст #4
Идентификатор : 8
Формат : UTF-8
Идентификатор кодека : S_TEXT/UTF8
Идентификатор кодека/Информация : UTF-8 Plain Text
Заголовок : full
Язык : Ukrainian
Default : Нет
Forced : Нет
Текст #5
Идентификатор : 9
Формат : UTF-8
Идентификатор кодека : S_TEXT/UTF8
Идентификатор кодека/Информация : UTF-8 Plain Text
Заголовок : SDH
Язык : English
Default : Нет
Forced : Нет
Меню
00:00:00.000 : :1
00:13:08.830 : :2
00:21:33.542 : :3
00:29:12.668 : :4
00:39:59.856 : :5
00:48:49.051 : :6
00:57:00.667 : :7
01:08:08.418 : :8
01:15:27.148 : :9
01:23:50.567 : :10
--Релиз группы:

Проверено на встроенном плейере ТВ LG 42LW4500--14.02.2014. Релиз обновлён - русская дорога заменена на лицензию, добавлена украинская.
Желающие, скачайте заново торрент-файл.
Остальные раздачи этого фильма (4)
Благодарности релизеру (76)

Торрент:

Статус:

Размер:

Зарегистрирован   [ 2014-02-14 18:40 ]

проверено

8.58 GB

 
 Мнение о фильме (154)

1, 2, 3, 4, 5, 6, 7, 8  След.






Спасибо за фильм! Смотрел экранку - очень впечатлило, а в тридэ и подавно!
 

Хороший фильм, 3D тоже. Без 3D его вобще нет смысла смотреть, впечатления совсем ни те будут.
 

Спасибо большое!
 

Отличный фильм , 3д здесь необходимо ,специально ждали релиз без полос . Огромное спасибо ! Есть нестыковки в плане физики , но на них как-то не обращаешь внимание .
 
евгения мурашко Профиль 10-Фев-2014 12:42

Спасибо большое!
 

3D отлично звук 5.1 отлично
 

 

Посмотрел , фильм просто нереально классный . 3д супер , как будто сам в космосе . 10+
 

дождались,спасибо!Кто смотрел отпишитесь как звук?или всё таки лучше подождать полноценный 5.1
 

и ребят отпишитесь что за звук Itunes???
заранее спасибо.
 

koss^24
BDRip это рип с блю-рей диска, а дополнительная "приставка" к нему относится к звуку.
iTunes - звук с лицензионного диска, полученный путём записи пользователем с платной онлайн трансляции фильма в сети (магазин itunes store)
Лицензия (иногда CEE)- соответственно звук пережатый или перекинутый в рип без пережатия с реального лицензионного диска.
И просто БДРип- возможны варианты звука, тут нужно смотреть описание раздачи, что там сказано о звуковых дорожках.
 

killer29 спасибо за ответ.теперь всё ясно,вопрос то был по сути только с дорожкой,тем не менее спасибо а ответ.
Значит качаем)
 

Фильм сильный, красивый, многогранный. Три-Дэ правильное, но почему-то меньшее, чем было в трейлере.
 

3D хорошее космос впечатляет, сам фильм посмотреть на 1 раз)))
 

normal
[img][/img]
 

3D очень слабое-почему???
 

В основном плоская картинка...
 

Тот же вопрос - скачал релиз с полосами, 3Д почти не ощущается - качество 3-копеечной конвертации. Кто смотрел в кино, отзовитесь - как там было с 3Д?
 
Полиграфович Профиль 10-Фев-2014 19:18

в чем разница 8.26 и 9.08 ?
 

nurja, там ФАБ-рип.
 

Страница 1 из 8

1, 2, 3, 4, 5, 6, 7, 8  След.