Торренты   
 
 


Иван Царевич и Серый Волк 2 (Владимир Торопчин) [2013 г., Anamorph OverUnder]

Рейтинг 3D:
50 голосов
6.5
Рейтинг фильма:
52 голосов
6.6
 
Вы должны быть авторизированы,
чтобы ставить оценки



Иван Царевич и Серый Волк 2
Год выпуска: 2013
Страна: Россия (Наше Кино, Фонд Кино, Анимационная студия Мельница, Кинокомпания CTB)
Жанр: мультфильм, приключения, семейный, фэнтези
Продолжительность: 1:12:41
Перевод: Не требуется
Режиссер: Владимир Торопчин
В ролях: Никита Ефремов, Татьяна Бунина, Иван Охлобыстин, Михаил Боярский, Ирина Рахманова, Александр Боярский
Описание: В Тридевятом царстве, где живут наши герои — тишь, да благодать. Иван женился на Василисе, и «жили они долго и счастливо», да не тут-то было. Иван целыми днями пропадает с Волком на службе — укрепляет рубежи и оборонную мощь, мечтает перевести стрелки часов на семь часов назад, чтобы меньше спать, и больше работать. А Василисе — скучно, как всем девушкам, ей хочется романтики, ну, такой, как в сказках. И тогда она решает организовать свое похищение… Однако, когда такое бывало, что в сказках все получалось так, как задумывалось?
Качество: BDrip
Контейнер: MKV
Формат 3D: Anamorph OverUnder / Вертикальная анаморфная стереопара
Видео кодек: x264
Аудио кодек: AC-3
Видео: AVC, High@L4.1, 1920х1080, 23,976 кадра/сек, 3645 Кбит/сек
Аудио: Русский / AC3 / 48 KHz / 5.1 ch / 640 Kbps (Оригинал - BD 3D)
Субтитры: Отсутствуют

Скриншоты

Media Info

Общее
Уникальный идентификатор : 231153822646555194909085831506300866724 (0xADE69B5C73BF72678CA91A99E9ED90A4)
Полное имя : H:\Source\IvanCarevichISeriyVolk.2.3D.32013.BDrip.Half.OU.x264.AC3.(itsamna).mkv
Формат : Matroska
Версия формата : Version 4 / Version 2
Размер файла : 2,22 Гбайт
Продолжительность : 1 ч. 12 м.
Общий поток : 4372 Кбит/сек
Название фильма : Иван Царевич и Серый Волк 2 (2013) 3D
Дата кодирования : UTC 2014-02-10 14:00:14
Программа кодирования : mkvmerge v6.3.0 ('You can't stop me!') built on Jul 19 2013 16:27:38
Библиотека кодирования : libebml v1.3.0 + libmatroska v1.4.1
Видео
Идентификатор : 1
Формат : AVC
Формат/Информация : Advanced Video Codec
Профиль формата : High@L4.1
Параметр CABAC формата : Да
Параметр ReFrames формата : 4 кадра
Идентификатор кодека : V_MPEG4/ISO/AVC
Продолжительность : 1 ч. 12 м.
Битрейт : 3645 Кбит/сек
Ширина : 1920 пикселей
Высота : 1080 пикселей
Соотношение сторон : 16:9
Режим частоты кадров : Постоянный
Частота кадров : 23,976 кадра/сек
Цветовое пространство : YUV
Субдискретизация насыщенности : 4:2:0
Битовая глубина : 8 бит
Тип развёртки : Прогрессивная
Бит/(Пиксели*Кадры) : 0.073
Размер потока : 1,85 Гбайт (83%)
Заголовок : rip by itsamna aka StarStranger (release 3D-RuGroup)
Библиотека кодирования : x264 core 130 r2273 b3065e6
Настройки программы : cabac=1 / ref=4 / deblock=1:-3:-3 / analyse=0x3:0x133 / me=umh / subme=10 / psy=1 / psy_rd=1.00:0.00 / mixed_ref=1 / me_range=32 / chroma_me=1 / trellis=2 / 8x8dct=1 / cqm=0 / deadzone=21,11 / fast_pskip=0 / chroma_qp_offset=-2 / threads=12 / lookahead_threads=2 / sliced_threads=0 / nr=0 / decimate=1 / interlaced=0 / bluray_compat=0 / constrained_intra=0 / bframes=8 / b_pyramid=2 / b_adapt=2 / b_bias=0 / direct=3 / weightb=1 / open_gop=0 / weightp=2 / keyint=250 / keyint_min=23 / scenecut=40 / intra_refresh=0 / rc_lookahead=60 / rc=crf / mbtree=1 / crf=17.0 / qcomp=0.60 / qpmin=0 / qpmax=69 / qpstep=4 / vbv_maxrate=50000 / vbv_bufsize=62500 / crf_max=0.0 / nal_hrd=none / ip_ratio=1.40 / aq=1:0.90
Default : Да
Forced : Нет
Аудио
Идентификатор : 2
Формат : AC-3
Формат/Информация : Audio Coding 3
Расширение режима : CM (complete main)
Параметр Endianness формата : Big
Идентификатор кодека : A_AC3
Продолжительность : 1 ч. 12 м.
Вид битрейта : Постоянный
Битрейт : 640 Кбит/сек
Каналы : 6 каналов
Расположение каналов : Front: L C R, Side: L R, LFE
Частота : 48,0 КГц
Битовая глубина : 16 бит
Метод сжатия : С потерями
Размер потока : 333 Мбайт (15%)
Заголовок : Оригинал - BD 3D
Язык : Russian
Default : Да
Forced : Нет
Меню
00:00:00.000 : :1
00:08:56.828 : :2
00:17:22.750 : :3
00:30:55.854 : :4
00:42:40.349 : :5
01:00:30.627 : :6
Остальные раздачи этого фильма (2)
Благодарности релизеру (48)

Торрент:

Статус:

Размер:

Зарегистрирован   [ 2014-02-10 19:54 ]

проверено

2.22 GB

 
 Мнение о фильме (15)





Смортрел без 3Д и где оно там нужно непонятно. Мульт понравился.
 

Первый фильм имхо интересней был.
 

Прикольный, не хуже первой части, понравилось всей семье: и взрослым, и детям. Просто в отличие от первой части здесь больше тонкого юмора в форме пародий. Правда, для понимания этого надо хорошо знать репертуар проката последних двух десятилетий.
 

Мультик понравился. 3Д в норме.
 
Алексей Вахляев Профиль 17-Фев-2014 14:16

Прикольный мультик, мы всей семьей смотрели, всем понравилось
 

норм мультик)))смешной
 

прикольный мультик
 

просмотр на раз
 

спасибо! хороший добрый мультик, глубина присутствует
 

даже не досмотрел 1 на порядок лучше
 

Зачет
 
АлександрД Профиль 14-Мар-2014 23:33

Честно говоря 1 часть была лучше
 

Мульт понравился. Спасибо за раздачу!
 
Анатолий921 Профиль 03-Апр-2014 12:15

мульт ни о чем - какая то херня, ребенку лучше на мозг не давить.
 

Спасибо за мульт StarStranger !!!!!