Торренты   
 
 


Metallica: Крізь неможливе в 3Д / Metallica Through the Never 3D (2013) [BDRip, 1080p] Anamorph OverUnder / Вертикальная анаморфная стереопара

Рейтинг 3D:
80 голосов
6.7
Рейтинг фильма:
80 голосов
6.7
 
Вы должны быть авторизированы,
чтобы ставить оценки



Metallica: Крізь неможливе в 3Д / Metallica Through the Never 3D
Год выпуска: 2013
Страна: США (PictureHouse, Blackened)
Жанр: Музыка, Приключения
Продолжительность: 01:32:45
Перевод: Украинский (многоголосый, закадровый)
Режиссер: Нимрод Антал / Nimród Antal
В фильме снимались: Trip - Дэйн ДеХаан / Джеймс Хетфилд - Lead Vocal, Guitar / Ларс Ульрих - Drums, Vocal / Кирк Хеммет - Guitar, Vocal / Роберт Трухильо - Bass, Vocal
Описание: Участник технической команды группы Metallica получает задание — привезти сумку, содержимое которой необходимо группе для выступления. Сопровождая таинственную сумку, он попадает в невероятные передряги. Картина представляет собой смесь игрового фильма и концерта.
Премьера: 9 сентября 2013 (26 сентября 2013)
Бюджет: $18 000 000

Трек-лист

1. Introduction
2. Ecstasy of Gold
3. Creeping Death
4. For Whom the Bell Tolls
5. Fuel
6. Ride the Lightning
7. One
8. The Memory Remains
9. Wherever I May Roam
10. Cyanide
11. ...And Justice for All
12. Master of Puppets
13. Battery
14. Nothing Else Matters
15. Enter Sandman
16. Hit the Lights
17. Orion

Знаете ли вы, что...:

Голландскому режиссеру Антону Корбейну предлагали возглавить проект, но он был вынужден отказаться из-за несогласованности графиков съемок с его фильмом «Особо опасен» (2013). В самом начале фильма парень падает со скейта. Интересен тот факт, что сам Джеймс Хетфилд не раз ломал себе руку из-за данного средства передвижения, из-за чего теперь концертный контракт содержит пункт «NO SKATEBOARDING». Сценарий фильма занимает всего лишь 15 страниц, и в нём почти нет диалогов.
Качество: BDRip (by Ash61)
Контейнер: MKV
Формат 3D: Anamorph OverUnder / Вертикальная анаморфная стереопара
Порядок ракурсов: левый ракурс первый
Видео кодек: x264
Аудио кодек: AC3, DTS-HD MA
Видео: AVC / 23,976 fps / 1920х1080p / 17.3 Mbps
Аудио 1: Українська / AC3 / 48 KHz / 5.1 ch / 640 Kbps (багатоголосий закадровий | UAVoice )
Аудио 2: Английский / AC3 / 48 KHz / 5.1 ch / 640 Kbps (Original - BD 3D)
Аудио 3: Английский / DTS-HD Master Audio 5.1 / 48 kHz / 5132 kbps / 24-bit (DTS Core: 5.1 / 48 kHz / 1509 kbps / 24-bit)
Субтитры (SRT):
Вшитые (softsub) - English Форсированные (Названия песен) (включены по умолчанию)

Українська доріжка

Переклад : Дмитро Урсуляк
Озвучення: Дмитро Роєцький, Дмитро Урсуляк, Леонід Статівка
Монтаж та робота зі звуком: Дмитро Урсуляк (BOOGud)
Об'ємний звук(5.1): BOOGud

MediaInfo

Общее
Уникальный идентификатор : 170282558263167447704335034249338785309 (0x801B3A50E097794594F30E3DD6CD8E1D)
Полное имя : D:\Download\Metallica. Through The Never 3D 2013 halfOU (Ash61).mkv
Формат : Matroska
Версия формата : Version 2
Размер файла : 13,3 Гбайт
Продолжительность : 1 ч. 32 м.
Общий поток : 20,5 Мбит/сек
Название фильма : ДОЛОЙ РЕКЛАМУ!
Дата кодирования : UTC 2014-02-11 07:14:14
Программа кодирования : mkvmerge v4.0.0 ('The Stars were mine') сборка от Jun 6 2010 16:18:42
Библиотека кодирования : libebml v1.0.0 + libmatroska v1.0.0
Видео
Идентификатор : 1
Формат : AVC
Формат/Информация : Advanced Video Codec
Профиль формата : High@L4.1
Параметр CABAC формата : Да
Параметр ReFrames формата : 4 кадра
Идентификатор кодека : V_MPEG4/ISO/AVC
Продолжительность : 1 ч. 32 м.
Битрейт : 17,3 Мбит/сек
Ширина : 1920 пикселей
Высота : 1080 пикселей
Соотношение сторон : 16:9
Режим частоты кадров : Постоянный
Частота кадров : 23,976 кадра/сек
Цветовое пространство : YUV
Субдискретизация насыщенности : 4:2:0
Битовая глубина : 8 бит
Тип развёртки : Прогрессивная
Бит/(Пиксели*Кадры) : 0.348
Размер потока : 11,2 Гбайт (84%)
Заголовок : BDRip by Ash61
Библиотека кодирования : x264 core 129 r2245 bc13772
Настройки программы : cabac=1 / ref=4 / deblock=1:-3:-3 / analyse=0x3:0x113 / me=umh / subme=10 / psy=1 / psy_rd=1.00:0.15 / mixed_ref=1 / me_range=32 / chroma_me=1 / trellis=2 / 8x8dct=1 / cqm=0 / deadzone=21,11 / fast_pskip=1 / chroma_qp_offset=-3 / threads=12 / lookahead_threads=2 / sliced_threads=0 / nr=0 / decimate=1 / interlaced=0 / bluray_compat=0 / constrained_intra=0 / bframes=9 / b_pyramid=2 / b_adapt=2 / b_bias=0 / direct=3 / weightb=1 / open_gop=0 / weightp=2 / keyint=250 / keyint_min=23 / scenecut=40 / intra_refresh=0 / rc_lookahead=60 / rc=crf / mbtree=1 / crf=17.0 / qcomp=0.70 / qpmin=0 / qpmax=69 / qpstep=4 / vbv_maxrate=40000 / vbv_bufsize=30000 / crf_max=0.0 / nal_hrd=none / frame-packing=4 / ip_ratio=1.40 / aq=1:0.70
Язык : English
Default : Нет
Forced : Нет
Аудио #1
Идентификатор : 2
Формат : AC-3
Формат/Информация : Audio Coding 3
Расширение режима : CM (complete main)
Параметр Endianness формата : Big
Идентификатор кодека : A_AC3
Продолжительность : 1 ч. 32 м.
Вид битрейта : Постоянный
Битрейт : 640 Кбит/сек
Каналы : 6 каналов
Расположение каналов : Front: L C R, Side: L R, LFE
Частота : 48,0 КГц
Битовая глубина : 16 бит
Метод сжатия : С потерями
Размер потока : 425 Мбайт (3%)
Заголовок : AC3 5.1
Язык : Ukrainian
Default : Да
Forced : Нет
Аудио #2
Идентификатор : 3
Формат : AC-3
Формат/Информация : Audio Coding 3
Расширение режима : CM (complete main)
Параметр Endianness формата : Big
Идентификатор кодека : A_AC3
Продолжительность : 1 ч. 32 м.
Вид битрейта : Постоянный
Битрейт : 640 Кбит/сек
Каналы : 6 каналов
Расположение каналов : Front: L C R, Side: L R, LFE
Частота : 48,0 КГц
Битовая глубина : 16 бит
Метод сжатия : С потерями
Размер потока : 425 Мбайт (3%)
Заголовок : AC3 5.1
Язык : English
Default : Нет
Forced : Нет
Аудио #3
Идентификатор : 4
Формат : DTS
Формат/Информация : Digital Theater Systems
Режим : 16
Параметр Endianness формата : Big
Идентификатор кодека : A_DTS
Продолжительность : 1 ч. 32 м.
Вид битрейта : Постоянный
Битрейт : 1509 Кбит/сек
Каналы : 6 каналов
Расположение каналов : Front: L C R, Side: L R, LFE
Частота : 48,0 КГц
Битовая глубина : 24 бит
Метод сжатия : С потерями
Задержка видео : 11 мс.
Размер потока : 1001 Мбайт (7%)
Заголовок : DTS 5.1
Язык : English
Default : Нет
Forced : Нет
Текст
Идентификатор : 5
Формат : UTF-8
Идентификатор кодека : S_TEXT/UTF8
Идентификатор кодека/Информация : UTF-8 Plain Text
Заголовок : Названия песен
Язык : English
Default : Нет
Forced : Нет
Меню
00:00:00.000 : :1. Introduction
00:03:48.228 : :2. Ecstasy of Gold
00:05:17.317 : :3. Creeping Death
00:10:56.155 : :4. For Whom the Bell Tolls
00:15:01.359 : :5. Fuel
00:19:34.965 : :6. Ride the Lightning
00:25:41.498 : :7. One
00:34:43.957 : :8. The Memory Remains
00:39:51.931 : :9. Wherever I May Roam
00:41:25.274 : :10. Cyanide
00:47:09.076 : :11. ...And Justice for All
00:55:25.697 : :12. Master of Puppets
01:03:46.239 : :13. Battery
01:07:02.060 : :14. Nothing Else Matters
01:12:45.486 : :15. Enter Sandman
01:19:27.429 : :16. Hit the Lights
01:24:26.937 : :17. Orion

Скриншоты


Остальные раздачи этого фильма (5)
Благодарности релизеру (1)

Торрент:

Статус:

Размер:

Зарегистрирован   [ 2014-02-11 16:28 ]

проверено

13.28 GB

 
 Мнение о фильме (23)

1, 2  След.






Металлику уважаю, но не фанател никогда. Фильм посмотрел с удовольствием. Шоу вселенского уровня! Хэтфилд в фантастической физической и голосовой форме, даже не ожидал от старичков такого отжига, ни скуки, ни усталости, настоящие матёрые поджарые волчищи, чистый драйв!!!
 

Поддерживаю целиком и полностью-однозначно в коллекцию!
 

Я думаю стоит расценивать "фильм" не как фильм, а как постановочный концерт.
А как концерт - все на высшем уровне!
 

Сам фильм-концерт класс, но 3д, как эффект присутствия, почти никакое, что-то Ларс с 3д прогадал. У Скорпов эффект присутствия в десятки раз лучше, ИМХО.
 

согласен с предыдущим оратором!!!;)
 

Все отлично,давно ждал
 

Хороший концерт, 3D нормально
 

Все отлично, 3D на уровне, в коллекцию однозначно
 

Старички жгут.Учитесь молодежь:).В коллекцию.
 

Хороший концерт мне понравился 3D норма !!! однозначно в колекцыю !!!
 

отличный концерт группы всем поклонникам советую
 

Спасибо! Понравилось!
 

Спасибо! Один раз посмотреть можно. Шоу снято хорошо. А насчет музыки, так себе. Но каждому свое.
 

Отличное шоу
 

красиво снят, хорошие спец эфекты, рекомендую.
 

Как фанат творчества, творений этой команды с удовольствием удаляю сей 3D-кино"шедевр". Автору раздачи, естественно, низкий поклон. Качество супер!
 

фильм суперский!!!!!!!! металлика рулит!!!!! 11 июня еду смотреть в варшаву металлику живьём) 3 дэ отдыхает!!)
 

Раздача хороша, но, к сожалению, на WDTV Live Hub вылетает каждые 40 секунд. Придется подыскать другую,, а хотелось именно SbS (некоторые телевизоры неправильно накладывают OU, если те содержат черные полосы).
 

Вот так бы Dimmu Borgir закатали!!!!!
 

не ну где с переводом? на мови слушать не хочу! патриотизм не позволяет!!!
 

Страница 1 из 2

1, 2  След.