Торренты   
 
 


Блэки летит на Луну / Black to the Moon 3D (Франсис Нилсен) [2013 г., Anamorph OverUnder]

Рейтинг 3D:
9 голосов
6.4
Рейтинг фильма:
9 голосов
5.3
 
Вы должны быть авторизированы,
чтобы ставить оценки


Блэки летит на Луну / Black to the Moon 3D
Год выпуска: 2013
Страна: Испания, Италия, Франция
Жанр: мультфильм, комедия, приключения
Продолжительность: 01:20:26
Перевод: Профессиональный (полное дублирование)
Режиссер: Франсис Нилсен
В ролях: Кристина Хьюз, Питер Хадсон, Брайан Вермейр, Бобби Джексон, Кэролин Фаллин
Описание: Овечка Блэки - настоящая чума для всей фермы. Она - постоянный нарушитель спокойствия, энергии у нее на десятерых. Она - черная овечка и очень гордится этим, потому что не хочет быть такой, как все. Животные-соседи называют ее «очаровательным бедствием». Иногда они считают Блэки невыносимой, но в конце концов стараются помочь в осуществлении ее безумных фантазий. И сейчас она просто одержима идеей полета на Луну. А о чем мечтает пес Кануто, охраняющий овец? О том, чтобы стать самым великим псом-охранником овец всех времен. Для этого он учится и трудится как проклятый. Он милый и хороший, и все просто обожают его. Ему нравится тишина и покой. И как такой правильный пес мог полюбить такую вздорную овечку? Несмотря на то, что он и слышать ничего не хотел о ракетах, Кануто решил поддержать свою обожаемую Блэки.
В ходе подготовки полета в какие только приключения они не попадут и каких только героев не встретят: корову - оперную певицу, волка - модного дизайнера, пауков-нелегалов, работающих на швейной фабрике, парочку птиц - участников реалити-шоу, овечку Пинки размером с Годзиллу, и главное - компанию собак, у которых уже есть ракета, практически готовая к запуску...
Качество: BDrip
Контейнер: MKV
Формат 3D: Anamorph OverUnder / Вертикальная анаморфная стереопара
Видео кодек: x264
Аудио кодек: AC-3
Видео: AVC, High@L4.1, 1920х1080, 23,976 кадра/сек, 4414 Кбит/сек
Аудио: Русский / AC3 / 48 KHz / 5.1 ch / 640 Kbps (Дубляж)

Скриншоты

Media Info

Общее
Уникальный идентификатор : 201326280728728596550835380396647840891 (0x97760800F7948809BF6A7026F7DCFC7B)
Полное имя : H:\Source\BlackToTheMoon.3D.2013.BD3DRip.Half.OU.x264.AC3.(itsamna).mkv
Формат : Matroska
Версия формата : Version 4 / Version 2
Размер файла : 2,90 Гбайт
Продолжительность : 1 ч. 20 м.
Общий поток : 5157 Кбит/сек
Название фильма : Black to the Moon (2013) 3D
Дата кодирования : UTC 2014-02-16 07:46:26
Программа кодирования : mkvmerge v6.3.0 ('You can't stop me!') built on Jul 19 2013 16:27:38
Библиотека кодирования : libebml v1.3.0 + libmatroska v1.4.1
Видео
Идентификатор : 1
Формат : AVC
Формат/Информация : Advanced Video Codec
Профиль формата : High@L4.1
Параметр CABAC формата : Да
Параметр ReFrames формата : 4 кадра
Идентификатор кодека : V_MPEG4/ISO/AVC
Продолжительность : 1 ч. 20 м.
Битрейт : 4414 Кбит/сек
Ширина : 1920 пикселей
Высота : 1080 пикселей
Соотношение сторон : 16:9
Режим частоты кадров : Постоянный
Частота кадров : 23,976 кадра/сек
Цветовое пространство : YUV
Субдискретизация насыщенности : 4:2:0
Битовая глубина : 8 бит
Тип развёртки : Прогрессивная
Бит/(Пиксели*Кадры) : 0.089
Размер потока : 2,48 Гбайт (86%)
Библиотека кодирования : x264 core 130 r2273 b3065e6
Настройки программы : cabac=1 / ref=4 / deblock=1:-3:-3 / analyse=0x3:0x133 / me=umh / subme=10 / psy=1 / psy_rd=1.00:0.15 / mixed_ref=1 / me_range=32 / chroma_me=1 / trellis=2 / 8x8dct=1 / cqm=0 / deadzone=21,11 / fast_pskip=0 / chroma_qp_offset=-3 / threads=12 / lookahead_threads=2 / sliced_threads=0 / nr=0 / decimate=1 / interlaced=0 / bluray_compat=0 / constrained_intra=0 / bframes=8 / b_pyramid=2 / b_adapt=2 / b_bias=0 / direct=3 / weightb=1 / open_gop=0 / weightp=2 / keyint=250 / keyint_min=23 / scenecut=40 / intra_refresh=0 / rc_lookahead=60 / rc=crf / mbtree=1 / crf=17.0 / qcomp=0.60 / qpmin=0 / qpmax=69 / qpstep=4 / vbv_maxrate=50000 / vbv_bufsize=62500 / crf_max=0.0 / nal_hrd=none / ip_ratio=1.40 / aq=1:0.90
Default : Да
Forced : Нет
Аудио
Идентификатор : 2
Формат : AC-3
Формат/Информация : Audio Coding 3
Расширение режима : CM (complete main)
Параметр Endianness формата : Big
Идентификатор кодека : A_AC3
Продолжительность : 1 ч. 20 м.
Вид битрейта : Постоянный
Битрейт : 640 Кбит/сек
Каналы : 6 каналов
Расположение каналов : Front: L C R, Side: L R, LFE
Частота : 48,0 КГц
Битовая глубина : 16 бит
Метод сжатия : С потерями
Размер потока : 368 Мбайт (12%)
Default : Да
Forced : Нет
Меню
00:00:00.000 : :01
00:05:16.608 : :02
00:10:45.353 : :03
00:16:49.425 : :04
00:23:14.518 : :05
00:28:50.062 : :06
00:34:30.485 : :07
00:41:15.807 : :08
00:47:55.164 : :09
00:57:38.163 : :10
01:05:57.704 : :11
01:10:52.165 : :12
--Релиз группы:

Проверено на встроенном плейере ТВ LG 42LW4500--
Остальные раздачи этого фильма (2)
Благодарности релизеру (14)

Торрент:

Статус:

Размер:

Зарегистрирован   [ 2014-02-16 13:44 ]

проверено

2.9 GB

 
 Мнение о фильме (3)





Спасибо за мульт,но с 3Д что-то не то.В каких-то сценах глаза терпят,а в других глаза аж выворачивает.Это даже на скринах видно-на одних кадрах стереопары совпадают,а на других раздвигаются в стороны.И на телике и на компе точно также и глазам больно получается...
 

Ой,я сразу не заметил-а что это за разрешение 1920х2024?Обычно 1920х1600-может причина в этом?
 

Скучненький мультик