Торренты   
 
 


Беги в 3Д / Run 3D (2013) [BDRip, 1080p] Anamorph SideBySide / Горизонтальная анаморфная стереопара

Рейтинг 3D:
16 голосов
6.8
Рейтинг фильма:
16 голосов
5.5
 
Вы должны быть авторизированы,
чтобы ставить оценки


Беги / Run
Год выпуска: 2013
Страна: США
Студия: 224 Entertainment, Intrinsic Value Films
Жанр: Боевик, триллер, мелодрама
Продолжительность: 01:30:33-Перевод: Профессиональный (дублированный)
Русские субтитры: нет
Режиссер : Симон Бартесаги
В ролях: Уильям Моусли, Адриан Пасдар, Келси Чоу, Крейг Хенингсен, Эдоардо Баллерини, Эрик Робертс, Сол Стайн, Джон Фреда, Джозеф Перрино, Альберт Валладарес-Описание: В нью-йоркской школе появляется таинственный ученик по имени Дэниэл. Он виртуозно владеет паркуром и сразу находит себе друзей по интересам, с которыми он может «летать» над городом, пока тот спит. Среди новых друзей прекрасная Эмили, которая безоглядно влюбляется в новичка. Но откуда приехал Дэниэл? Кто он такой? Где он жил раньше? Ведь у него полно секретов, которые он не доверяет своим друзьям. Но тайны прошлого не дремлют и Дэниэлу придётся бороться не только за свою жизнь, но и за жизнь своих новых друзей.- . -Качество: BDrip
Контейнер: MKV
Формат 3D: Anamorph SideBySide / Горизонтальная анаморфная стереопара
Порядок ракурсов: левый ракурс первый
Видео кодек: h.264
Аудио кодек: AC3
Видео: MPEG-4 AVC, 10.8 Мбит/с, 1920x1080, 23.976 кадр/с
Аудио: Русский, AC3, 48.0 кГц, 6 ch, 448 кбит/с

MediaInfo

Общее
Уникальный идентификатор : 237181740019545736831039319142256064678 (0xB26F8AA223B0CCFE88437E0595A7B8A6)
Полное имя : D:\Download\Run 3D 2013 BDRip halfSbS 1080p (IgorekSh) [ДОЛОЙ РЕКЛАМУ!].mkv
Формат : Matroska
Версия формата : Version 2
Размер файла : 7,28 Гбайт
Продолжительность : 1 ч. 30 м.
Общий поток : 11,5 Мбит/сек
Название фильма : ДОЛОЙ РЕКЛАМУ!
Дата кодирования : UTC 2014-02-18 10:00:49
Программа кодирования : mkvmerge v4.0.0 ('The Stars were mine') сборка от Jun 6 2010 16:18:42
Библиотека кодирования : libebml v1.0.0 + libmatroska v1.0.0
Видео
Идентификатор : 1
Формат : AVC
Формат/Информация : Advanced Video Codec
Профиль формата : High@L4.1
MultiView_Count : 2
MultiView_Layout : Right Eye
Параметр CABAC формата : Да
Параметр ReFrames формата : 4 кадра
Идентификатор кодека : V_MPEG4/ISO/AVC
Продолжительность : 1 ч. 30 м.
Битрейт : 10,8 Мбит/сек
Ширина : 1920 пикселей
Высота : 1080 пикселей
Соотношение сторон : 16:9
Режим частоты кадров : Постоянный
Частота кадров : 23,976 кадра/сек
Цветовое пространство : YUV
Субдискретизация насыщенности : 4:2:0
Битовая глубина : 8 бит
Тип развёртки : Прогрессивная
Бит/(Пиксели*Кадры) : 0.218
Размер потока : 6,85 Гбайт (94%)
Заголовок : IgorekSh [ДОЛОЙ РЕКЛАМУ!]
Язык : English
Default : Нет
Forced : Нет
Аудио
Идентификатор : 2
Формат : AC-3
Формат/Информация : Audio Coding 3
Расширение режима : CM (complete main)
Параметр Endianness формата : Big
Идентификатор кодека : A_AC3
Продолжительность : 1 ч. 30 м.
Вид битрейта : Постоянный
Битрейт : 448 Кбит/сек
Каналы : 6 каналов
Расположение каналов : Front: L C R, Side: L R, LFE
Частота : 48,0 КГц
Битовая глубина : 16 бит
Метод сжатия : С потерями
Размер потока : 290 Мбайт (4%)
Заголовок : ДОЛОЙ РЕКЛАМУ!
Язык : Russian
Default : Да
Forced : Нет
Меню
00:00:00.000 : en:00:00:00.000
00:07:03.298 : en:00:07:03.298
00:14:31.871 : en:00:14:31.871
00:21:27.369 : en:00:21:27.369
00:28:49.269 : en:00:28:49.269
00:34:47.210 : en:00:34:47.210
00:44:07.478 : en:00:44:07.478
00:52:44.870 : en:00:52:44.870
00:58:47.107 : en:00:58:47.107
01:06:05.211 : en:01:06:05.211
01:19:46.156 : en:01:19:46.156
01:21:20.501 : en:01:21:20.501

Скриншоты


Благодарности релизеру (20)

Торрент:

Статус:

Размер:

Зарегистрирован   [ 2014-02-18 16:05 ]

проверено

7.28 GB

 
 Мнение о фильме (8)





3д норм. Звук не очень. Спасибо.
 
Виталий Цыганов Профиль 19-Фев-2014 15:41

Изображение и звук не синхронны (очень). Изображение местами темновато. Тем, кто готов мириться с этим, фильм стоит посмотреть. В фильме подростки, воры, паркур, погони. 3D на месте. Спасибо.
 

Звук ужасный.И вообще, фильм ниже среднего.
 

фильм средний, звук впереди секунды на три.
 

Фильм до конца не досмотрел, да же со второго раза. На мой взгляд не стоит тратить время. Звук сильно запаздывает.
 

Фильм мне понравился.Молодёжный.Динамичный.Современный.
 

Не мое, не очень понравилось
 

фигня полная