Торренты   
 
 

 

Кумба / Khumba (Энтони Силверстон) [2013 г., Anamorph OverUnder]

Рейтинг 3D:
1 голосов
10
Рейтинг фильма:
1 голосов
10
 
Вы должны быть авторизированы,
чтобы ставить оценки


(с) Закрыто правообладателем

Кумба / Khumba
Год выпуска: 2013
Страна: Millennium Entertainment, CMG, Triggerfish Animation Studios (ЮАР)
Жанр: мультфильм, приключения, семейный
Продолжительность: 01:25:18
Перевод: Профессиональный (полное дублирование)
Режиссер: Энтони Силверстон
В ролях: Джейк Т. Остин, Лиам Нисон, Стив Бушеми, Анна-София Робб, Лоренс Фишбёрн, Грег Эллис, Ричард Э. Грант, Кэтрин Тейт, Чарльз Адлер, Ди Брэдли Бейкер
Описание: Зебра Кумба с самого рождения был посмешищем всего стада из-за того, что родился наполовину полосатым, а наполовину белым. Хуже того, когда началась Великая Засуха, сородичи решили, что он проклят, и в нем причина всех бед. Стадо изгнало Кумбу, и даже отец отвернулся от него! Отважная полуполосатая зебра отправляется в опасные и веселые приключения, чтобы найти недостающие полоски и заслужить уважение семьи…
Качество: BDrip
Контейнер: MKV
Формат 3D: Anamorph OverUnder / Вертикальная анаморфная стереопара
Видео кодек: x264
Аудио кодек: AC-3
Формат 3D: Anamorph OverUnder
Видео: AVC, High@L4.1, 1920х1080, 23,976 кадра/сек, 4198 Кбит/сек
Звук: Русский / AC3 / 48 KHz / 5.1 ch / 448 Kбит/сек (Дубляж)

Скриншоты

Media Info

Общее
Уникальный идентификатор : 222219660538271518531134307362457646017 (0xA72DF3291F3D4E699B985DC2512DF3C1)
Полное имя : H:\Source\Khumba.3D.2013.BD3DRip.Half.OU.x264.AC3.(itsamna).mkv
Формат : Matroska
Версия формата : Version 4 / Version 2
Размер файла : 3,21 Гбайт
Продолжительность : 1 ч. 25 м.
Общий поток : 5393 Кбит/сек
Название фильма : Khumba (2013) 3D
Дата кодирования : UTC 2014-02-18 20:30:45
Программа кодирования : mkvmerge v6.3.0 ('You can't stop me!') built on Jul 19 2013 16:27:38
Библиотека кодирования : libebml v1.3.0 + libmatroska v1.4.1
Видео
Идентификатор : 1
Формат : AVC
Формат/Информация : Advanced Video Codec
Профиль формата : High@L4.1
Параметр CABAC формата : Да
Параметр ReFrames формата : 4 кадра
Идентификатор кодека : V_MPEG4/ISO/AVC
Продолжительность : 1 ч. 25 м.
Битрейт : 4198 Кбит/сек
Ширина : 1920 пикселей
Высота : 1080 пикселей
Соотношение сторон : 16:9
Режим частоты кадров : Постоянный
Частота кадров : 23,976 кадра/сек
Цветовое пространство : YUV
Субдискретизация насыщенности : 4:2:0
Битовая глубина : 8 бит
Тип развёртки : Прогрессивная
Бит/(Пиксели*Кадры) : 0.084
Размер потока : 2,50 Гбайт (78%)
Заголовок : rip by itsamna aka StarStranger (release 3D-RuGroup)
Библиотека кодирования : x264 core 130 r2273 b3065e6
Настройки программы : cabac=1 / ref=4 / deblock=1:-3:-3 / analyse=0x3:0x133 / me=umh / subme=10 / psy=1 / psy_rd=1.00:0.15 / mixed_ref=1 / me_range=32 / chroma_me=1 / trellis=2 / 8x8dct=1 / cqm=0 / deadzone=21,11 / fast_pskip=0 / chroma_qp_offset=-3 / threads=12 / lookahead_threads=2 / sliced_threads=0 / nr=0 / decimate=1 / interlaced=0 / bluray_compat=0 / constrained_intra=0 / bframes=8 / b_pyramid=2 / b_adapt=2 / b_bias=0 / direct=3 / weightb=1 / open_gop=0 / weightp=2 / keyint=250 / keyint_min=23 / scenecut=40 / intra_refresh=0 / rc_lookahead=60 / rc=crf / mbtree=1 / crf=18.0 / qcomp=0.60 / qpmin=0 / qpmax=69 / qpstep=4 / vbv_maxrate=50000 / vbv_bufsize=62500 / crf_max=0.0 / nal_hrd=none / ip_ratio=1.40 / aq=1:0.90
Default : Да
Forced : Нет
Аудио #1
Идентификатор : 2
Формат : AC-3
Формат/Информация : Audio Coding 3
Расширение режима : CM (complete main)
Параметр Endianness формата : Big
Идентификатор кодека : A_AC3
Продолжительность : 1 ч. 25 м.
Вид битрейта : Постоянный
Битрейт : 448 Кбит/сек
Каналы : 6 каналов
Расположение каналов : Front: L C R, Side: L R, LFE
Частота : 48,0 КГц
Битовая глубина : 16 бит
Метод сжатия : С потерями
Размер потока : 273 Мбайт (8%)
Язык : Russian
Default : Да
Forced : Нет
Аудио #2
Идентификатор : 3
Формат : AC-3
Формат/Информация : Audio Coding 3
Расширение режима : CM (complete main)
Параметр Endianness формата : Big
Идентификатор кодека : A_AC3
Продолжительность : 1 ч. 25 м.
Вид битрейта : Постоянный
Битрейт : 640 Кбит/сек
Каналы : 6 каналов
Расположение каналов : Front: L C R, Side: L R, LFE
Частота : 48,0 КГц
Битовая глубина : 16 бит
Метод сжатия : С потерями
Размер потока : 390 Мбайт (12%)
Язык : English
Default : Нет
Forced : Нет
Меню
00:00:00.000 : :01
00:07:02.881 : :02
00:14:33.623 : :03
00:24:04.485 : :04
00:30:51.933 : :05
00:38:02.489 : :06
00:45:18.507 : :07
00:50:56.345 : :08
00:55:26.865 : :09
01:00:10.857 : :10
01:09:02.305 : :11
01:19:12.790 : :12
--Релиз группы:

Проверено на встроенном плейере ТВ LG 42LW4500--
Благодарности релизеру (4)

Торрент:

Статус:

Размер:

Зарегистрирован   [ 2014-02-19 18:25 ]

© закрыто правообладателем

3.21 GB

 
 Мнение о фильме (11)





Не успели ничего сделать, а праваки уже тут как тут, привожу текст:
Уважаемая администрация!
Настоящим ООО «Интернет Копирайт Менеджмент» доводит до вашего сведения, что нами обнаружены нарушения авторских прав на аудиовизуальное произведение (ссылки ниже).
Нам стало известно, что на Вашем Интернет-ресурсе torrents3d.ru доводится или может доводиться до всеобщего сведения электронные копии указанных произведений. Такие права не передавались Правообладателем Вашему Интернет-ресурсу.
Хотели бы напомнить, что размещение данных Произведений без разрешения Правообладателя на Вашем ресурсу нарушает исключительные права, предусмотренные п. 11 ст. 1270 Гражданского кодекса РФ, а именно: «доведение произведения до всеобщего сведения таким образом, что любое лицо может получить доступ к произведению из любого места и в любое время по собственному выбору (доведение до всеобщего сведения)».
В соответствии с п. 3 ст. 1250 ГК РФ, отсутствие вины нарушителя не освобождает его от обязанности прекратить нарушение интеллектуальных прав, а также не исключает применение в отношении нарушителя мер, направленных на защиту таких прав.
Обращаем Ваше внимание также на то, что, начиная с 01 августа 2013 года, вступает в силу Федеральный закон РФ № 187-ФЗ от 02.07.2013г. «О внесении изменений в отдельные законодательные акты Российской Федерации по вопросам защиты интеллектуальных прав в информационно-телекоммуникационных сетях».
Данный Закон, в частности, предусматривает процедуру обращения в Московский городской суд с целью принятия предварительных обеспечительных мер защиты исключительных прав на фильмы в информационно-телекоммуникационных сетях, в том числе в сети Интернет.
Кроме этого, в связи с принятием Закона, Гражданский кодекс РФ был дополнен статьей 1253.1. «Особенности ответственности информационного посредника», положения которой предусматривают четкий перечень лиц (в том числе владельца информационного ресурса), называемых информационным посредником, а также устанавливают ответственность информационных посредников за нарушение интеллектуальных прав.
Напоминаем Вам, что в соответствии со ст. 1301 ГК РФ, Правообладатели имеют право требовать по своему выбору от нарушителя вместо возмещения убытков выплаты компенсации в размере от десяти тысяч рублей до пяти миллионов рублей, определяемом по усмотрению суда; в двукратном размере стоимости экземпляров произведения или в двукратном размере стоимости права использования произведения, определяемой исходя из цены, которая при сравнимых обстоятельствах обычно взимается за правомерное использование произведения.
Мы заранее благодарны Вам за содействие.
Юридический отдел
Интернет Копирайт Менеджмент
Аудиовизуальное произведение "Кумба" / "Khumba", производство: , 2013 (правообладатель ООО "Люксор Дистрибьюшн"; правоподтверждающие документы: http://ruprotect.com/static/warrants/Khumba_dov.pdf).
Страницы (файлы) URL:
http://torrents3d.ru/article/4810
 

этот мульт от создателей ЗАМБЕЗИИ, которая в свое время, отняла - часа полтора моей жизни. Очередной анимационный, прости господи,- опус мог отнять еще 1.5 часа. Правообладатели справедливо боятся, что зритель, разобравшийся в низком качестве продукта, никогда не купит дорогостоящий BD-диск с таким ФУФЛОМ! фильм мало-бюджетный это видно по официальному трейлеру. Когда появится в свободной скачке, качать - НЕ БУДУ!!!!!!!!!!!!!!!!!!!
 

а релизеру конечно - СПАСИБО!
 

IgorekSh, Зря ссылки даёте, правообладателям только на руку...
 

olandr, всех не закроют! А люди пусть смотрят, хотя сам советую ходить в кино.
 

А люди пусть смотрят, хотя сам советую ходить в кино.
эта хрень в кино будет аж летом 2014 года ! ... а тут бац , и лицензия )))))))))))
 

Вот хрень! По ихнему если я дал фильм посмотреть соседу - это уже пират. Тут люди просто дают посмотреть делятся фильмами - (ООО «Интернет Копирайт Менеджмент»ГАДЫ ОНИ!!!!) Понравится фильм, люди купят! А на многие денег даже жалко
 

Птичка...
 

Не все торенты правильные, некоторые клали на всех правообладателей!!!!
 

Если фильм выходит в России с запозданием минимум на пол года , то не удивительно , что ети так называемые правообладатели в пролете -надо вовремя фильмы покупать ! Еще удивительно , почему нет новых старых "Оборотень" и "Побудь в моей шкуре" , а "Выживут только любовники " вышел вообще фиг знает когда уже ! всех с 23 Февраля !
 
евгения мурашко Профиль 23-Фев-2014 08:05

Трекер в Ру-зоне сейчас очень плохая идея.