Торренты   
 
 

 

K y м б a в 3Д / К h u m b а 3D (Энтoни Cилвeрстoн / Аnthоnу Silvеrstоn) [2013, мультфильм, приключения, семейный, BDrip, 1080p]Full OverUnder / Вертикальная стереопара

Рейтинг 3D:
9 голосов
7.7
Рейтинг фильма:
9 голосов
6.3
 
Вы должны быть авторизированы,
чтобы ставить оценки


Кумба / Khumba
Год выпуска: 2013
Страна: ЮАР
Студия: Millennium Entertainment, CMG, Triggerfish Animation Studios
Жанр: мультфильм, приключения, семейный
Продолжительность: 01:25:18
Перевод: Профессиональный (дублированный)
Русские субтитры: нет
Режиссер на русском: Энтони Силверстон
Режиссер на английском: Anthony Silverston
В ролях: Джейк Т. Остин, Лиам Нисон, Стив Бушеми, Анна-София Робб, Лоренс Фишбёрн, Грег Эллис, Ричард Э. Грант, Кэтрин Тейт, Чарльз Адлер, Ди Брэдли Бейкер
Описание: Зебра Кумба с самого рождения был посмешищем всего стада из-за того, что родился наполовину полосатым, а наполовину белым. Хуже того, когда началась Великая Засуха, сородичи решили, что он проклят, и в нем причина всех бед. Стадо изгнало Кумбу, и даже отец отвернулся от него! Отважная полуполосатая зебра отправляется в опасные и веселые приключения, чтобы найти недостающие полоски и заслужить уважение семьи...
Сэмпл: http://www.sendspace.com/file/nmm3ih
Качество: BDrip
Контейнер: MKV
Формат 3D: OverUnder / Вертикальная стереопара
Порядок ракурсов: левый ракурс первый
Видео кодек: x264
Аудио кодек: AC3
Видео: AVC / High@L5.0 / 23,976 fps / 1920х1600 / 8699 Кбит/сек
Аудио: Русский / AC3 / 48 KHz / 5.1 ch / 448 Кбит/сек
Аудио 2: Английский / AC3 / 48 KHz / 5.1 ch / 640 Кбит/сек
Релиз группы: ВНИМАНИЕ ! На встроенных ТВ-плеерах работать не будет!!!
Железные плееры на которых воспроизводятся полные стереопары:Popcorn C-200 , Dune HD Smart D1 , Dune HD DUO , Dune HD Smart H1 , Dune HD Smart B1 , Dune HD Max , Dune HD TV-303D , Dune HD Base 3D , Dune HD TV-301

MediaInfo

Общее
Уникальный идентификатор : 216379398295460780511562003400201854305 (0xA2C928002B26CCFF968CAB44FBB3DD61)
Полное имя : E:\закачки\Khumba.Rip by SeRoGa00.mkv
Формат : Matroska
Версия формата : Version 2
Размер файла : 5,95 Гбайт
Продолжительность : 1 ч. 25 м.
Общий поток : 9986 Кбит/сек
Дата кодирования : UTC 2014-02-23 02:46:33
Программа кодирования : mkvmerge v3.4.0 ('Rapunzel') сборка от May 15 2010 09:38:20
Библиотека кодирования : libebml v0.8.0 + libmatroska v0.9.0
Видео
Идентификатор : 1
Формат : AVC
Формат/Информация : Advanced Video Codec
Профиль формата : High@L5.0
Параметр CABAC формата : Да
Параметр ReFrames формата : 4 кадра
Идентификатор кодека : V_MPEG4/ISO/AVC
Продолжительность : 1 ч. 25 м.
Битрейт : 8699 Кбит/сек
Ширина : 1920 пикселей
Высота : 1600 пикселей
Соотношение сторон : 1,200
Частота кадров : 23,976 кадра/сек
Цветовое пространство : YUV
Субдискретизация насыщенности : 4:2:0
Битовая глубина : 8 бит
Тип развёртки : Прогрессивная
Бит/(Пиксели*Кадры) : 0.118
Размер потока : 5,18 Гбайт (87%)
Заголовок : Rip by SeRoGa00
Библиотека кодирования : x264 core 138 r2356 a1d3d17
Настройки программы : cabac=1 / ref=4 / deblock=1:-3:-3 / analyse=0x3:0x113 / me=umh / subme=9 / psy=1 / psy_rd=1.00:0.15 / mixed_ref=1 / me_range=24 / chroma_me=1 / trellis=2 / 8x8dct=1 / cqm=0 / deadzone=21,11 / fast_pskip=1 / chroma_qp_offset=-3 / threads=9 / lookahead_threads=1 / sliced_threads=0 / nr=0 / decimate=1 / interlaced=0 / bluray_compat=0 / constrained_intra=0 / bframes=8 / b_pyramid=2 / b_adapt=2 / b_bias=0 / direct=3 / weightb=1 / open_gop=0 / weightp=2 / keyint=250 / keyint_min=23 / scenecut=40 / intra_refresh=0 / rc_lookahead=60 / rc=crf / mbtree=1 / crf=18.0 / qcomp=0.60 / qpmin=10 / qpmax=69 / qpstep=4 / vbv_maxrate=40000 / vbv_bufsize=40000 / crf_max=0.0 / nal_hrd=none / ip_ratio=1.40 / aq=1:1.00
Язык : English
Аудио #1
Идентификатор : 2
Формат : AC-3
Формат/Информация : Audio Coding 3
Расширение режима : CM (complete main)
Идентификатор кодека : A_AC3
Продолжительность : 1 ч. 25 м.
Вид битрейта : Постоянный
Битрейт : 448 Кбит/сек
Каналы : 6 каналов
Расположение каналов : Front: L C R, Side: L R, LFE
Частота : 48,0 КГц
Битовая глубина : 16 бит
Метод сжатия : С потерями
Размер потока : 273 Мбайт (4%)
Язык : Russian
Аудио #2
Идентификатор : 3
Формат : AC-3
Формат/Информация : Audio Coding 3
Расширение режима : CM (complete main)
Идентификатор кодека : A_AC3
Продолжительность : 1 ч. 25 м.
Вид битрейта : Постоянный
Битрейт : 640 Кбит/сек
Каналы : 6 каналов
Расположение каналов : Front: L C R, Side: L R, LFE
Частота : 48,0 КГц
Битовая глубина : 16 бит
Метод сжатия : С потерями
Размер потока : 390 Мбайт (6%)
Язык : English

Скриншоты


Благодарности релизеру (13)

Торрент:

Статус:

Размер:

Зарегистрирован   [ 2014-02-23 07:37 ]

проверено

5.95 GB

 
 Мнение о фильме (5)





Ааа! На рутрекере приколисты, название: Хуимба в 3Д / Huimba in 3D описание:
Зебра Хуимба с самого рождения был посмешищем всего стада
в отличии от Кумбы,только из за такого имени всё становится понятно
Зебра Хуимба с самого рождения был посмешищем всего стада из-за того, что родился наполовину волосатым, а наполовину с голым задом. Хуже того, когда началась Великая Засуха, сородичи решили, что он гей, и в нем причина всех бед.
 

Там самые злые правообладатели , уже и замаскированые раздачи находят , посмотрим как долго эта Хуимба продержится.
 

спасибо! мультик понравился. 3д на высоте.
 

Там самые злые правообладатели , уже и замаскированые раздачи находят , посмотрим как долго эта Хуимба продержится.
до сих пор не закрыли )))) единственная раздача этого мульта на рутрекере ))))
 

Еле осилил.