Торренты   
 
 

 

Африканское сафари в 3Д / African Safari 3D (2013) [ENG, BDRip, 1080p] Anamorph OverUnder / Вертикальная анаморфная стереопара

Рейтинг 3D:
2 голосов
9.0
Рейтинг фильма:
2 голосов
8.0
 
Вы должны быть авторизированы,
чтобы ставить оценки


Африканское сафари в 3Д / African Safari 3D
Год выпуска: 2013
Жанр: Документальный, семейный
Длительность: 01:25:54
Перевод: Отсутствует
В главных ролях: Кевин Ричардсон
Режиссер: Бен Стассен
Описание: Пройдя вместе со съемочной группой от атлантического побережья Намибии до снегов величественной горы Килиманджаро, вы увидите то, что сложно даже представить: купание гигантских слонов, охотящихся хищников, 15 миллионов летучих мышей разом и даже карабкающихся по деревьям львов. С помощью высококачественного 3D уникальная экосистема Черного Континента предстанет во всей своей красоте и величии.
Формат 3D: Anamorph OverUnder / Вертикальная анаморфная стереопара
Порядок ракурсов: левый ракурс первый
Качество: BDRip
Контейнер: MKV
Видео кодек: x264
Аудио кодек: AC3
Видео: MPEG-4 AVC, 13.7 Мбит/с, 1920x1080, 23.976 кадр/с
Аудио: Английский, AC3, 640kbps, 6 channels
Трейлер к фильму: Скачать с файлообменника и Посмотреть на Youtube

Скриншоты


Mediainfo

Общее
Уникальный идентификатор : 182673534488986492147021314076165944829 (0x896DA49C6E32794FBBE00B1EE68235FD)
Полное имя : D:\Download\African Safari 3D 2013 BDRip halfOU 1080p (IgorekSh) [ДОЛОЙ РЕКЛАМУ!].mkv
Формат : Matroska
Версия формата : Version 2
Размер файла : 8,82 Гбайт
Продолжительность : 1 ч. 25 м.
Общий поток : 14,7 Мбит/сек
Название фильма : ДОЛОЙ РЕКЛАМУ!
Дата кодирования : UTC 2014-02-25 13:34:08
Программа кодирования : mkvmerge v4.0.0 ('The Stars were mine') сборка от Jun 6 2010 16:18:42
Библиотека кодирования : libebml v1.0.0 + libmatroska v1.0.0
Видео
Идентификатор : 1
Формат : AVC
Формат/Информация : Advanced Video Codec
Профиль формата : High@L4.1
MultiView_Count : 2
MultiView_Layout : Both Eye
Параметр CABAC формата : Да
Параметр ReFrames формата : 4 кадра
Идентификатор кодека : V_MPEG4/ISO/AVC
Продолжительность : 1 ч. 25 м.
Битрейт : 13,8 Мбит/сек
Ширина : 1920 пикселей
Высота : 1080 пикселей
Соотношение сторон : 16:9
Режим частоты кадров : Постоянный
Частота кадров : 23,976 кадра/сек
Цветовое пространство : YUV
Субдискретизация насыщенности : 4:2:0
Битовая глубина : 8 бит
Тип развёртки : Прогрессивная
Бит/(Пиксели*Кадры) : 0.277
Размер потока : 8,26 Гбайт (94%)
Заголовок : IgorekSh [ДОЛОЙ РЕКЛАМУ!]
Библиотека кодирования : x264 core 142 r2389 956c8d8
Настройки программы : cabac=1 / ref=4 / deblock=1:-3:-3 / analyse=0x3:0x113 / me=umh / subme=9 / psy=1 / psy_rd=1.00:0.15 / mixed_ref=1 / me_range=16 / chroma_me=1 / trellis=1 / 8x8dct=1 / cqm=0 / deadzone=21,11 / fast_pskip=1 / chroma_qp_offset=-3 / threads=36 / lookahead_threads=3 / sliced_threads=0 / nr=0 / decimate=1 / interlaced=0 / bluray_compat=0 / constrained_intra=0 / bframes=6 / b_pyramid=2 / b_adapt=1 / b_bias=0 / direct=3 / weightb=1 / open_gop=0 / weightp=2 / keyint=250 / keyint_min=23 / scenecut=40 / intra_refresh=0 / rc_lookahead=40 / rc=crf / mbtree=1 / crf=18.0 / qcomp=0.60 / qpmin=10 / qpmax=69 / qpstep=4 / vbv_maxrate=40000 / vbv_bufsize=30000 / crf_max=0.0 / nal_hrd=none / filler=0 / ip_ratio=1.40 / aq=1:1.00
Язык : English
Default : Нет
Forced : Нет
Аудио
Идентификатор : 2
Формат : AC-3
Формат/Информация : Audio Coding 3
Расширение режима : CM (complete main)
Параметр Endianness формата : Big
Идентификатор кодека : A_AC3
Продолжительность : 1 ч. 25 м.
Вид битрейта : Постоянный
Битрейт : 640 Кбит/сек
Каналы : 6 каналов
Расположение каналов : Front: L C R, Side: L R, LFE
Частота : 44,1 КГц
Битовая глубина : 16 бит
Метод сжатия : С потерями
Размер потока : 393 Мбайт (4%)
Заголовок : ДОЛОЙ РЕКЛАМУ!
Язык : English
Default : Да
Forced : Нет
Меню
00:00:00.000 : en:00:00:00.000
00:10:27.252 : en:00:10:27.252
00:21:49.934 : en:00:21:49.934
00:31:35.894 : en:00:31:35.894
00:42:35.553 : en:00:42:35.553
00:53:23.992 : en:00:53:23.992
01:03:13.123 : en:01:03:13.123
01:13:10.636 : en:01:13:10.636
01:21:13.535 : en:01:21:13.535
Благодарности релизеру (2)

Торрент:

Статус:

Размер:

Зарегистрирован   [ 2014-02-25 20:12 ]

проверено

8.82 GB

 
 Мнение о фильме (1)





Классный фильм. 3D очень хорошее. В принципе можно и без перевода смотреть. Если вы постоянный зритель Дискавери и тому подобных каналов, и хоть немного знаете английский, можете смело смотреть так. Ничего нового там не скажут.