Торренты   
 
 


Битва титанов / Clash of the Titans (Луи Летерье) [2010 г., боевик, фэнтези, драма, приключения, 720р, OverUnder]

Рейтинг 3D:
23 голосов
5.8
Рейтинг фильма:
19 голосов
7.4
 
Вы должны быть авторизированы,
чтобы ставить оценки


[bad]Битва титанов / Clash of the Titans
Год выпуска: 2010
Страна: США Великобритания
Жанр: боевик, фэнтези, драма, приключения
Продолжительность: 01:46:07
Перевод: Профессиональный (полное дублирование)
Режиссер: Луи Летерье
В ролях: Сэм Уортингтон, Лиам Нисон, Рэйф Файнс, Джейсон Флеминг, Джемма Артертон, Алекса Давалос, Тине Штапельфелдт, Мадс Миккельсен, Люк Эванс, Изабелла Мико
Описание: Персей, сын бога, воспитанный человеком, не смог защитить свою семью от Аида, мстительного повелителя подземного мира. Теперь ему уже нечего терять, и он добровольно соглашается возглавить опасную миссию, чтобы одержать победу над Аидом до того, как тот отберет власть у Зевса и выпустит демонов подземного царства на Землю. Возглавляя отряд бесстрашных воинов, Персей отправляется в рискованное путешествие по лабиринту запретных миров. Чтобы победить в свирепой схватке с жуткими демонами и злобными чудовищами, противостоять злому року и стать хозяином своей судьбы, он должен осознать и принять свою божественную силу.
Доп. информация: Первоначально американская премьера «Битвы Титанов» была намечена на 26 марта 2010 года. Огромный успех «Аватара» (2009) побудил киностудию попробовать, как будет смотреться фильм в трёхмерном формате. После того как тестовые просмотры прошли с огромным успехом, в конце января 2010 года было принято решение о переводе фильма полностью в 3-D, а дата выхода в прокат в связи с этим была сдвинута на неделю на 3 апреля.
Формат 3d: OverUnder

Скриншоты


MediaInfo

Format : Matroska
File size : 6.63 GiB
Duration : 1h 46mn
Overall bit rate : 8 939 Kbps
Encoded date : UTC 2010-09-03 04:53:45
Writing application : mkvmerge v2.9.7 ('Tenderness') built on Jul 1 2009 18:43:35
Writing library : libebml v0.7.7 + libmatroska v0.8.1
Video
ID : 1
Format : AVC
Format/Info : Advanced Video Codec
Format profile : High@L4.0
Format settings, CABAC : Yes
Format settings, ReFrames : 4 frames
Muxing mode : Container profile=Unknown@4.0
Codec ID : V_MPEG4/ISO/AVC
Duration : 1h 46mn
Bit rate : 7 673 Kbps
Width : 1 280 pixels
Height : 1 072 pixels
Display aspect ratio : 1.194
Frame rate : 23.976 fps
Resolution : 8 bits
Colorimetry : 4:2:0
Scan type : Progressive
Bits/(Pixel*Frame) : 0.233
Stream size : 5.69 GiB (86%)
Writing library : x264 core 104 r1703 cd21d05
Encoding settings : cabac=1 / ref=4 / deblock=1:-1:-2 / analyse=0x3:0x113 / me=umh / subme=7 / psy=1 / psy_rd=1.00:0.15 / mixed_ref=1 / me_range=16 / chroma_me=1 / trellis=2 / 8x8dct=1 / cqm=0 / deadzone=21,11 / fast_pskip=1 / chroma_qp_offset=-3 / threads=6 / sliced_threads=0 / nr=0 / decimate=1 / interlaced=0 / constrained_intra=0 / bframes=6 / b_pyramid=0 / b_adapt=2 / b_bias=0 / direct=3 / weightb=1 / open_gop=0 / weightp=2 / keyint=250 / keyint_min=23 / scenecut=40 / intra_refresh=0 / rc_lookahead=40 / rc=crf / mbtree=1 / crf=18.0 / qcomp=0.60 / qpmin=10 / qpmax=51 / qpstep=4 / ip_ratio=1.40 / aq=1:1.00
Audio #1
ID : 2
Format : AC-3
Format/Info : Audio Coding 3
Format_Settings_ModeExtension : CM (complete main)
Codec ID : A_AC3
Duration : 1h 46mn
Bit rate mode : Constant
Bit rate : 448 Kbps
Channel(s) : 6 channels
Channel positions : Front: L C R, Side: L R, LFE
Sampling rate : 48.0 KHz
Stream size : 340 MiB (5%)
Title : Dublyazh AC3 5.1 448 kbps
Language : Russian
Audio #2
ID : 3
Format : AC-3
Format/Info : Audio Coding 3
Format_Settings_ModeExtension : CM (complete main)
Codec ID : A_AC3
Duration : 1h 46mn
Bit rate mode : Constant
Bit rate : 640 Kbps
Channel(s) : 6 channels
Channel positions : Front: L C R, Side: L R, LFE
Sampling rate : 48.0 KHz
Stream size : 486 MiB (7%)
Language : English
Остальные раздачи этого фильма (6)
Благодарности релизеру (3)

Торрент:

Статус:

Размер:

Зарегистрирован   [ 2010-09-05 12:25 ]

проверено

6.63 GB