Торренты   
 
 

 

Храброе сердце в 3Д / Ritter Rost 3D (2013) [BDRip, 1080p] Anamorph SidebySide / Горизонтальная анаморфная стереопара

Рейтинг 3D:
12 голосов
7.5
Рейтинг фильма:
10 голосов
7.2
 
Вы должны быть авторизированы,
чтобы ставить оценки


Храброе сердце в 3Д / Ritter Rost 3D
«Приключения в тридесятом королевстве»
Год: 2013
Страна: Германия
Жанр: мультфильм, приключения, семейный
Продолжительность: 01:23:58
Перевод: Профессиональный (полное дублирование) [Лицензия (DVD R5)]
Режиссер: Томас Боденштайн, Хьюберт Вейланд, Нина Велссценарий Марк Слэйтер, Габриэла Вальтер, Йорг Хильберт
Продюсер: Габриэла Вальтер, Бернхард цу Кастелл, Кейт Форсдик
Композитор: Андреас Гриммонтаж Мартин Реймерс
В главных ролях: Ульрих Фрэнк, Том Герхардт, Кристоф Мария Хербст, Рик Каваниан, Каролин Кебекус, Хартмут Нойгебауер, Пьер Питерс-Арнольдс, Детлеф Редингер, Дастин Земмельрогге
Описание: В одном сказочном королевстве, где есть мудрый король, прекрасная принцесса и храбрый рыцарь, как это всегда бывает в сказках, появился хитрый и коварный злодей, задумавший стать новым правителем. Единственный кто может помешать его планам — находчивый рыцарь Расти. Пусть пока у него не все получается, и многие не воспринимают его всерьез, он обязательно станет настоящим героем и вместе со своими верными друзьями спасет королевство.
Формат 3D: Half SideBySide / Горизонтальная анаморфная стереопара
Порядок ракурсов: левый ракурс первый
Качество: BDRip
Контейнер: MKV
Видео кодек: x264
Аудио кодек: AC3
Видео: MPEG-4 AVC, 4634 Кбит/с, 1920x1080, 23.976 кадр/с
Аудио 1: Русский / AC3 / 6 ch / 448 Кбит/с (Дубляж - Лицензия DVD R5)
Аудио 2: Английский / AC3 / 2 ch / 640 Кбит/с (Original)

Скриншоты


MediaInfo

Общее
Уникальный идентификатор : 241983920267577476244291820150358506123 (0xB60C68664265BECE89A7F670C63B7A8B)
Полное имя : D:\Download\Ritter Rost 3D 2013 BDRip 1080p halfSbS (IgorekSh) [ДОЛОЙ РЕКЛАМУ!].mkv
Формат : Matroska
Версия формата : Version 2
Размер файла : 3,42 Гбайт
Продолжительность : 1 ч. 23 м.
Общий поток : 5837 Кбит/сек
Название фильма : ДОЛОЙ РЕКЛАМУ!
Дата кодирования : UTC 2014-04-16 09:46:38
Программа кодирования : mkvmerge v4.0.0 ('The Stars were mine') сборка от Jun 6 2010 16:18:42
Библиотека кодирования : libebml v1.0.0 + libmatroska v1.0.0
Видео
Идентификатор : 1
Формат : AVC
Формат/Информация : Advanced Video Codec
Профиль формата : High@L4.1
MultiView_Count : 2
MultiView_Layout : Right Eye
Параметр CABAC формата : Да
Параметр ReFrames формата : 4 кадра
Идентификатор кодека : V_MPEG4/ISO/AVC
Продолжительность : 1 ч. 23 м.
Битрейт : 4633 Кбит/сек
Ширина : 1920 пикселей
Высота : 1080 пикселей
Соотношение сторон : 16:9
Режим частоты кадров : Постоянный
Частота кадров : 23,976 кадра/сек
Цветовое пространство : YUV
Субдискретизация насыщенности : 4:2:0
Битовая глубина : 8 бит
Тип развёртки : Прогрессивная
Бит/(Пиксели*Кадры) : 0.093
Размер потока : 2,72 Гбайт (79%)
Заголовок : IgorekSh [ДОЛОЙ РЕКЛАМУ!]
Библиотека кодирования : x264 core 138 r2358 9e941d1
Настройки программы : cabac=1 / ref=4 / deblock=1:1:-1 / analyse=0x3:0x113 / me=umh / subme=7 / psy=1 / psy_rd=1.00:0.15 / mixed_ref=1 / me_range=16 / chroma_me=1 / trellis=1 / 8x8dct=1 / cqm=0 / deadzone=21,11 / fast_pskip=0 / chroma_qp_offset=-3 / threads=12 / lookahead_threads=2 / sliced_threads=0 / nr=0 / decimate=1 / interlaced=0 / bluray_compat=0 / constrained_intra=0 / bframes=3 / b_pyramid=2 / b_adapt=1 / b_bias=0 / direct=1 / weightb=1 / open_gop=0 / weightp=2 / keyint=250 / keyint_min=23 / scenecut=40 / intra_refresh=0 / rc_lookahead=40 / rc=crf / mbtree=1 / crf=20.0 / qcomp=0.60 / qpmin=0 / qpmax=69 / qpstep=4 / ip_ratio=1.40 / aq=1:1.00
Язык : English
Default : Нет
Forced : Нет
Аудио #1
Идентификатор : 2
Формат : AC-3
Формат/Информация : Audio Coding 3
Расширение режима : CM (complete main)
Параметр Endianness формата : Big
Идентификатор кодека : A_AC3
Продолжительность : 1 ч. 23 м.
Вид битрейта : Постоянный
Битрейт : 448 Кбит/сек
Каналы : 6 каналов
Расположение каналов : Front: L C R, Side: L R, LFE
Частота : 48,0 КГц
Битовая глубина : 16 бит
Метод сжатия : С потерями
Размер потока : 269 Мбайт (8%)
Заголовок : ДОЛОЙ РЕКЛАМУ!
Язык : Russian
Default : Нет
Forced : Нет
Аудио #2
Идентификатор : 3
Формат : AC-3
Формат/Информация : Audio Coding 3
Расширение режима : CM (complete main)
Параметр Endianness формата : Big
Идентификатор кодека : A_AC3
Продолжительность : 1 ч. 23 м.
Вид битрейта : Постоянный
Битрейт : 640 Кбит/сек
Каналы : 2 канала
Расположение каналов : Front: L R
Частота : 44,1 КГц
Битовая глубина : 16 бит
Метод сжатия : С потерями
Размер потока : 384 Мбайт (11%)
Заголовок : ДОЛОЙ РЕКЛАМУ!
Язык : English
Default : Нет
Forced : Нет
17.04.2014 Раздача обновлена.
Русская звуковая дорожка "чистый звук" заменена на лицензионный DVD R5.
Желающие, скачайте заново торрент-файл.
Благодарности релизеру (15)

Торрент:

Статус:

Размер:

Зарегистрирован   [ 2014-04-17 18:46 ]

проверено

3.42 GB

 
 Мнение о фильме (3)





Прикольный мультик, детям нравится
 

17.04.2014 Раздача обновлена. Русская звуковая дорожка "чистый звук" заменена на лицензионный DVD R5.
Желающие, скачайте заново торрент-файл.
 

Отличный мультик.