Торренты   
 
 

 

Носорог Отто в 3Д / Otto er et næsehorn 3D / Otto The Rhino 3D (2013) [BDRip, 1080p] Anamorph OverUnder / Вертикальная анаморфная стереопара

Рейтинг 3D:
7 голосов
2.8
Рейтинг фильма:
7 голосов
2.9
 
Вы должны быть авторизированы,
чтобы ставить оценки


Носорог Отто в 3Д / Otto er et næsehorn 3D / Otto The Rhino 3D
Год выпуска: 2013
Жанр: мультфильм, комедия, семейный
Страна: Дания
Длительность: 01:15:53
Перевод: Одноголосый закадровый [Barin101]
Режиссеры: Кеннет Кайнц
Актеры: Хелле Доллерис, Ларс Бригманн, Бодиль Ёргенсон, Томми Кентер, Сёс Эгелинд, Ларс Кнутцон, Том Дженсен, Хенрик Койфоэд, Кая Брюэль, Кеннет Кайнц
Сценарий: Руне Шётт
Саундтрек: Халфдан И, Сорен Зигумфелд
Продюссеры: Нина Кроун, Эрик Вильструп
Описание: Топпер – оптимистически настроенный мальчишка с живым воображением. Он влюблен в Силле, но девочка считает его немного сумасшедшим. Однажды Топпер находит карандаш и рисует носорога, который вдруг оживает! И с этого момента все в его жизни резко меняется.
Летние каникулы для Топпера проходят довольно скучно, дни тянутся долго и похожи один на другой. Кроме того, он скучает по отцу, который ушел на своем корабле за семь морей, а может, и еще дальше. Но в один прекрасный день этому персонажу мультфильма «Носорог Отто» (Otto er et næsehorn) в руки попадает необычный карандаш, и в его жизнь приходит волшебство!
В старом здании на кирпичной стене Топпер вместе со своим лучим другом Вигго рисует желтого носорога с тремя рогами. Герои мультфильма «Носорог Отто» никак не ожидали, что их рисунок ждет удивительная судьба. Не прошло и нескольких мгновений, как носорог ожил!

Формат 3D: Anamorph OverUnder / Вертикальная анаморфная стереопара
Порядок ракурсов: левый ракурс первый
Качество: BDRip
Контейнер: MKV
Видео кодек: x264
Аудио кодек: AC3
Видео: MPEG-4 AVC, 8000 кбит/с, 1920x1080, 23.976 кадр/с
Аудио 1: Русский, AC-3, 48.0 KHz, 2 channels, 192 Kbps (Одноголосый закадровый [Barin101])
Аудио 2: English, AC-3, 48.0 KHz, 6 channels, 640 Kbps
Аудио 3: Danish, AC-3, 48.0 KHz, 6 channels, 640 Kbps
Аудио 4: Norwegian, AC-3, 48.0 KHz, 6 channels, 640 Kbps
Субтитры: English, Danish

Скриншоты




MediaInfo

Общее
Уникальный идентификатор : 221904582322220961839674828403511460646 (0xA6F1449AEF327DDAB9C9AAED87010326)
Полное имя : D:\Download\Otto The Rhino 3D 2013 BDRip 1080p halfOU (IgorekSh).mkv
Формат : Matroska
Версия формата : Version 2
Размер файла : 5,37 Гбайт
Продолжительность : 1 ч. 15 м.
Режим общего битрейта : Переменный
Общий поток : 10,1 Мбит/сек
Дата кодирования : UTC 2014-04-09 11:36:45
Программа кодирования : mkvmerge v4.0.0 ('The Stars were mine') сборка от Jun 6 2010 16:18:42
Библиотека кодирования : libebml v1.0.0 + libmatroska v1.0.0
Видео
Идентификатор : 1
Формат : AVC
Формат/Информация : Advanced Video Codec
Профиль формата : High@L4.1
MultiView_Count : 2
MultiView_Layout : Both Eye
Параметр CABAC формата : Да
Параметр ReFrames формата : 3 кадра
Идентификатор кодека : V_MPEG4/ISO/AVC
Продолжительность : 1 ч. 15 м.
Вид битрейта : Переменный
Битрейт : 8000 Кбит/сек
Максимальный битрейт : 40,0 Мбит/сек
Ширина : 1920 пикселей
Высота : 1080 пикселей
Соотношение сторон : 16:9
Режим частоты кадров : Постоянный
Частота кадров : 23,976 кадра/сек
Цветовое пространство : YUV
Субдискретизация насыщенности : 4:2:0
Битовая глубина : 8 бит
Тип развёртки : Прогрессивная
Бит/(Пиксели*Кадры) : 0.161
Размер потока : 4,14 Гбайт (77%)
Библиотека кодирования : x264 core 138 r2358 9e941d1
Настройки программы : cabac=1 / ref=4 / deblock=1:-1:-1 / analyse=0x3:0x113 / me=hex / subme=7 / psy=1 / psy_rd=1.00:0.15 / mixed_ref=1 / me_range=16 / chroma_me=1 / trellis=1 / 8x8dct=1 / cqm=0 / deadzone=21,11 / fast_pskip=1 / chroma_qp_offset=-3 / threads=6 / lookahead_threads=1 / sliced_threads=0 / slices=4 / nr=10 / decimate=1 / interlaced=0 / bluray_compat=1 / constrained_intra=0 / bframes=3 / b_pyramid=1 / b_adapt=1 / b_bias=0 / direct=1 / weightb=1 / open_gop=1 / weightp=1 / keyint=24 / keyint_min=1 / scenecut=40 / intra_refresh=0 / rc_lookahead=24 / rc=2pass / mbtree=1 / bitrate=8000 / ratetol=1.0 / qcomp=0.60 / qpmin=0 / qpmax=69 / qpstep=4 / cplxblur=20.0 / qblur=0.5 / vbv_maxrate=40000 / vbv_bufsize=30000 / nal_hrd=vbr / ip_ratio=1.40 / aq=1:1.00
Язык : English
Default : Нет
Forced : Нет
Основные цвета : BT.709
Характеристики трансфера : BT.709
Коэффициенты матрицы : BT.709
Аудио #1
Идентификатор : 2
Формат : AC-3
Формат/Информация : Audio Coding 3
Расширение режима : CM (complete main)
Параметр Endianness формата : Big
Идентификатор кодека : A_AC3
Продолжительность : 1 ч. 15 м.
Вид битрейта : Постоянный
Битрейт : 192 Кбит/сек
Каналы : 2 канала
Расположение каналов : Front: L R
Частота : 48,0 КГц
Битовая глубина : 16 бит
Метод сжатия : С потерями
Размер потока : 104 Мбайт (2%)
Заголовок : ДОЛОЙ РЕКЛАМУ!
Язык : Russian
Default : Да
Forced : Да
Аудио #2
Идентификатор : 3
Формат : AC-3
Формат/Информация : Audio Coding 3
Расширение режима : CM (complete main)
Параметр Endianness формата : Big
Идентификатор кодека : A_AC3
Продолжительность : 1 ч. 15 м.
Вид битрейта : Постоянный
Битрейт : 640 Кбит/сек
Каналы : 6 каналов
Расположение каналов : Front: L C R, Side: L R, LFE
Частота : 48,0 КГц
Битовая глубина : 16 бит
Метод сжатия : С потерями
Размер потока : 347 Мбайт (6%)
Язык : English
Default : Нет
Forced : Нет
Аудио #3
Идентификатор : 4
Формат : AC-3
Формат/Информация : Audio Coding 3
Расширение режима : CM (complete main)
Параметр Endianness формата : Big
Идентификатор кодека : A_AC3
Продолжительность : 1 ч. 15 м.
Вид битрейта : Постоянный
Битрейт : 640 Кбит/сек
Каналы : 6 каналов
Расположение каналов : Front: L C R, Side: L R, LFE
Частота : 48,0 КГц
Битовая глубина : 16 бит
Метод сжатия : С потерями
Размер потока : 347 Мбайт (6%)
Заголовок : ДОЛОЙ РЕКЛАМУ!
Язык : Danish
Default : Нет
Forced : Нет
Аудио #4
Идентификатор : 5
Формат : AC-3
Формат/Информация : Audio Coding 3
Расширение режима : CM (complete main)
Параметр Endianness формата : Big
Идентификатор кодека : A_AC3
Продолжительность : 1 ч. 15 м.
Вид битрейта : Постоянный
Битрейт : 640 Кбит/сек
Каналы : 6 каналов
Расположение каналов : Front: L C R, Side: L R, LFE
Частота : 48,0 КГц
Битовая глубина : 16 бит
Метод сжатия : С потерями
Размер потока : 347 Мбайт (6%)
Заголовок : ДОЛОЙ РЕКЛАМУ!
Язык : Norwegian
Default : Нет
Forced : Нет
Текст #1
Идентификатор : 6
Формат : VobSub
Режим смешивания : zlib
Идентификатор кодека : S_VOBSUB
Идентификатор кодека/Информация : The same subtitle format used on DVDs
Язык : English
Default : Нет
Forced : Нет
Текст #2
Идентификатор : 7
Формат : VobSub
Режим смешивания : zlib
Идентификатор кодека : S_VOBSUB
Идентификатор кодека/Информация : The same subtitle format used on DVDs
Язык : Danish
Default : Нет
Forced : Нет
9.04.2014 Раздача обновлена. Добавлена русская звуковая дорожка.
Желающие, скачайте заново торрент-файл.
Благодарности релизеру (9)

Торрент:

Статус:

Размер:

Зарегистрирован   [ 2014-04-25 19:48 ]

проверено

5.37 GB

 
 Мнение о фильме (6)





фейк в топку
 

да и без перевода - поддерживаю (в топку)
 

фигня
 

Ба! Знакомые все лица! Неужто очередная серия, "Цирк..."
 

9.04.2014 Раздача обновлена.
Добавлена русская звуковая дорожка.
Желающие, скачайте заново торрент-файл.
 

Статус "сомнительно" не даёт создавать новые релизы. Поставьте "временная" или закройте вовсе. На рутрекере "проверено".