Торренты   
 
 


Я, Франкенштейн в 3Д / I, Frankenstein 3D (2014) [BDRip, 1080p] Anamorph SidebySide / Горизонтальная анаморфная стереопара

Рейтинг 3D:
223 голосов
6.9
Рейтинг фильма:
222 голосов
6.6
 
Вы должны быть авторизированы,
чтобы ставить оценки


Я, Франкенштейн в 3Д / I, Frankenstein 3D
Год выпуска: 2014
Жанр: Фэнтези, боевик, приключения
Выпущено: США, Австралия, Hopscotch Features, Lakeshore Entertainment
Озвучивание: Дублированное [лицензия]
Продолжительность: 01:33:10
Режиссер: Стюарт Битти
В ролях: Аарон Экхарт, Ивонн Страховски, Билл Найи, Джай Кортни, Миранда Отто, Кэйтлин Стэйси, Кевин Гревье, Аден Янг, Дениз Акдениз, Крис Пэнг,Вирджиния Ле Брун
О фильме: Монстр Адам, созданный доктором Франкенштейном, благодаря своим уникальным генам доживает до наших дней. Оказавшись в мрачном готическом метрополисе, он попадает в самую гущу вековой войны между двумя кланами бессмертных существ... Мрачное порождение Виктора Франкенштейна живёт уединённой жизнью, понимая, что он другой, и что ему не место среди простых людей. Впрочем, пока не натыкается на гаргулий.... Да, если бы не демоны, которым Адам нужен в виде подопытной крысы, он бы никогда не вернулся из добровольной ссылки. Возвращение Адама превращает зыбкое равновесие в войну на истребление. Сам он оказывается в эпицентре конфликта, и, не осознавая, что является ключевой фигурой в игре вечных противников, яростно вступает в схватку с адскими тварями...

Формат 3D: Anamorph SidebySide / Горизонтальная анаморфная стереопара
Порядок ракурсов: левый ракурс первый
Качество: BDRip
Контейнер: MKV
Видео кодек: x264
Аудио кодек: AC3
Видео: MPEG-4 AVC, 9882 Кбит/с, 1920x1080, 23.976 кадр/с
Аудио: Русский / AC3 / 6 ch / 448 Кбит/с
Релиз: [img]http://ДОЛОЙ РЕКЛАМУ!/IgorekSh.png[/img]

Скриншоты


MediaInfo

Общее
Уникальный идентификатор : 221045114352049920077446447809026311561 (0xA64BBD9009FEB3B4B32E5E2974D7C589)
Полное имя : D:\Download\I, Frankenstein 3D 2014 BDRip halfSbS 1080p (IgorekSh) [ДОЛОЙ РЕКЛАМУ!].mkv
Формат : Matroska
Версия формата : Version 2
Размер файла : 6,85 Гбайт
Продолжительность : 1 ч. 33 м.
Общий поток : 10,5 Мбит/сек
Название фильма : ДОЛОЙ РЕКЛАМУ!
Дата кодирования : UTC 2014-03-01 10:29:42
Программа кодирования : mkvmerge v4.0.0 ('The Stars were mine') сборка от Jun 6 2010 16:18:42
Библиотека кодирования : libebml v1.0.0 + libmatroska v1.0.0
Видео
Идентификатор : 1
Формат : AVC
Формат/Информация : Advanced Video Codec
Профиль формата : High@L4.1
Параметр CABAC формата : Да
Параметр ReFrames формата : 2 кадра
Параметр GOP формата : M=3, N=24
Идентификатор кодека : V_MPEG4/ISO/AVC
Продолжительность : 1 ч. 33 м.
Битрейт : 9882 Кбит/сек
Ширина : 1920 пикселей
Высота : 1080 пикселей
Соотношение сторон : 16:9
Режим частоты кадров : Постоянный
Частота кадров : 23,976 кадра/сек
Цветовое пространство : YUV
Субдискретизация насыщенности : 4:2:0
Битовая глубина : 8 бит
Тип развёртки : Прогрессивная
Бит/(Пиксели*Кадры) : 0.199
Размер потока : 6,42 Гбайт (94%)
Заголовок : IgorekSh [ДОЛОЙ РЕКЛАМУ!]
Библиотека кодирования : x264 core
Язык : English
Default : Нет
Forced : Нет
Основные цвета : BT.709
Характеристики трансфера : BT.709
Коэффициенты матрицы : BT.709
Аудио
Идентификатор : 2
Формат : AC-3
Формат/Информация : Audio Coding 3
Расширение режима : CM (complete main)
Параметр Endianness формата : Big
Идентификатор кодека : A_AC3
Продолжительность : 1 ч. 33 м.
Вид битрейта : Постоянный
Битрейт : 448 Кбит/сек
Каналы : 6 каналов
Расположение каналов : Front: L C R, Side: L R, LFE
Частота : 48,0 КГц
Битовая глубина : 16 бит
Метод сжатия : С потерями
Размер потока : 298 Мбайт (4%)
Заголовок : ДОЛОЙ РЕКЛАМУ!
Язык : Russian
Default : Нет
Forced : Нет
Меню
00:00:00.000 : en:00:00:00.000
00:12:24.077 : en:00:12:24.077
00:22:07.785 : en:00:22:07.785
00:33:21.958 : en:00:33:21.958
00:44:51.772 : en:00:44:51.772
00:56:45.527 : en:00:56:45.527
01:07:12.487 : en:01:07:12.487
01:21:14.661 : en:01:21:14.661
Остальные раздачи этого фильма (4)
Благодарности релизеру (24)

Торрент:

Статус:

Размер:

Зарегистрирован   [ 2014-03-01 15:04 ]

проверено

6.85 GB

 
 Мнение о фильме (78)

1, 2, 3, 4  След.






фильм норм
 

на 3-ку, смесь "Другой мир" и "Ван Хельсинг"
 

очередная сказка для детей, взрослые ничего не потеряют пропустив её. Детям младшего школьного возраста самое то - без ругани ,без крови, без ужасов. Минимальный сюжет есть, картинка красивая ,ЗД заметно но не более того.
 

Фильм отличный.3D нормальное,смотрел в IMAX кинотеатре в г.Саранск
 

3д хорошее. Фильм понравился. Снято красиво. Много видео эффектов.
 
Виталий Цыганов Профиль 02-Мар-2014 20:38

Спасибо,будем ждать теперь кропы от Вас здесь, раз другие трекеры игнорируют такие раздачи.
 

что такое кроп?
 

что такое кроп?
Часть кадра, отрезанная или вырезанная от полного кадра называется кропом этого кадра...
Crop - обрезание, по моему лучший перевод
 

Сценарий фильма мягко говоря ужасный. Дико глупая история, от глупости которой голова идёт кругом. В сюжете глупо совершенно всё. Качество эффектов на очень высоком уровне, но благодаря бездарному сценарию, нет даже малейшего желания восхищаться ими.
Благодарю за очень качественную раздачу. Отдельное спасибо за отсутствие полос.
 

Подскажите как убрать эти черные полосы. (воспроизвожу на компьютере)
 

-- Подскажите как убрать эти черные полосы. (воспроизвожу на компьютере)
Тебе сюда
http://torrents3d.ru/article/4837/
 

Посмотрим сказочку
 

СПАСИБО ЗА ТВОИ ТРУДЫ И СТАРАНИЯ!РЕАЛЬНО ВЫРУЧАЕШЬ!!!
 

УВАЖУХА!
 

Посмотрел 30 минут и выключил. Бредятина на которую лучше не тратить время. 3D хорошее, но даже оно не вытянет этот фильм чтобы посмотреть его до конца.
 

спасибо огромное за фильм!!!
 

Спасибо за раздачу! В принципе, на один раз пойдет.
 

Фильм на один раз, не зацепило.
 

Если честно сюжет не очень .Действительно больше для детей.
 

Фильм совсем не порадовал. Сюжет никакой, много абсурда и глупости. Дешевый закос под Ван Хельсинг. 3д очень слабое.
 

Страница 1 из 4

1, 2, 3, 4  След.