Торренты   
 
 


Я, Франкенштейн / I, Frankenstein (Стюарт Битти) [2013 г., Anamorph OverUnder]

Рейтинг 3D:
223 голосов
6.9
Рейтинг фильма:
222 голосов
6.6
 
Вы должны быть авторизированы,
чтобы ставить оценки


Я, Франкенштейн / I, Frankenstein
Год выпуска: 2013
Страна: США, Австралия
Жанр: фэнтези, боевик, приключения
Продолжительность: 01:33:04
Перевод: Профессиональный (полное дублирование)
Режиссер: Стюарт Битти
В ролях: Аарон Экхарт, Ивонн Страховски, Миранда Отто, Билл Найи, Джай Кортни, Сократис Отто, Аден Янг, Кэйтлин Стэйси, Махеш Джаду, Стив Музакис
Описание: Он — монстр. Он — двухсотлетний плод безумной фантазии своего создателя. Он — легенда. Мир, в котором он живет, населен древними горгульями и бессмертными демонами, которые сражаются за обладание человечеством. Величественные соборы скрывают огромные арсеналы, за дверьми научных лабораторий проводятся эксперименты по воскрешению мертвых. Война двух кланов могущественных существ достигает своего пика. И только он, Адам, монстр Франкенштейна, в силах ее остановить.
Качество: BDrip
Контейнер: MKV
Формат 3D: Anamorph OverUnder / Вертикальная анаморфная стереопара
Видео кодек: x264
Аудио кодек: AC-3
Видео: AVC, High@L4.1, 1920х1080, 23,976 кадра/сек, 13,2 Мбит/сек
Звук: Русский / AC3 / 48 KHz / 5.1 ch / 640 Kбит/сек (Дубляж)

Скриншоты

Media Info

Общее
Уникальный идентификатор : 243820196980256040582810502626518990187 (0xB76E0FD4D0F00F68863F958BAD877D6B)
Полное имя : H:\Source\IFrankenstein.3D.2013.BDrip.Half.OU.x264.AC3.(itsamna).mkv
Формат : Matroska
Версия формата : Version 4 / Version 2
Размер файла : 9,19 Гбайт
Продолжительность : 1 ч. 33 м.
Общий поток : 14,1 Мбит/сек
Название фильма : I, Frankenstein (2013) 3D
Дата кодирования : UTC 2014-03-01 23:22:28
Программа кодирования : mkvmerge v6.3.0 ('You can't stop me!') built on Jul 19 2013 16:27:38
Библиотека кодирования : libebml v1.3.0 + libmatroska v1.4.1
Видео
Идентификатор : 1
Формат : AVC
Формат/Информация : Advanced Video Codec
Профиль формата : High@L4.1
Параметр CABAC формата : Да
Параметр ReFrames формата : 4 кадра
Идентификатор кодека : V_MPEG4/ISO/AVC
Продолжительность : 1 ч. 33 м.
Битрейт : 13,2 Мбит/сек
Ширина : 1920 пикселей
Высота : 1080 пикселей
Соотношение сторон : 16:9
Режим частоты кадров : Постоянный
Частота кадров : 23,976 кадра/сек
Цветовое пространство : YUV
Субдискретизация насыщенности : 4:2:0
Битовая глубина : 8 бит
Тип развёртки : Прогрессивная
Бит/(Пиксели*Кадры) : 0.266
Размер потока : 8,59 Гбайт (93%)
Библиотека кодирования : x264 core 130 r2273 b3065e6
Настройки программы : cabac=1 / ref=4 / deblock=1:-3:-3 / analyse=0x3:0x133 / me=umh / subme=10 / psy=1 / psy_rd=1.00:0.15 / mixed_ref=1 / me_range=32 / chroma_me=1 / trellis=2 / 8x8dct=1 / cqm=0 / deadzone=21,11 / fast_pskip=0 / chroma_qp_offset=-3 / threads=12 / lookahead_threads=2 / sliced_threads=0 / nr=0 / decimate=1 / interlaced=0 / bluray_compat=0 / constrained_intra=0 / bframes=8 / b_pyramid=2 / b_adapt=2 / b_bias=0 / direct=3 / weightb=1 / open_gop=0 / weightp=2 / keyint=250 / keyint_min=23 / scenecut=40 / intra_refresh=0 / rc_lookahead=60 / rc=crf / mbtree=1 / crf=16.0 / qcomp=0.60 / qpmin=0 / qpmax=69 / qpstep=4 / vbv_maxrate=50000 / vbv_bufsize=62500 / crf_max=0.0 / nal_hrd=none / ip_ratio=1.40 / aq=1:0.90
Default : Да
Forced : Нет
Аудио
Идентификатор : 2
Формат : AC-3
Формат/Информация : Audio Coding 3
Расширение режима : CM (complete main)
Параметр Endianness формата : Big
Идентификатор кодека : A_AC3
Продолжительность : 1 ч. 33 м.
Вид битрейта : Постоянный
Битрейт : 640 Кбит/сек
Каналы : 6 каналов
Расположение каналов : Front: L C R, Side: L R, LFE
Частота : 48,0 КГц
Битовая глубина : 16 бит
Метод сжатия : С потерями
Размер потока : 426 Мбайт (5%)
Язык : Russian
Default : Да
Forced : Нет
Меню
00:00:00.000 : :01
00:12:24.077 : :02
00:22:07.785 : :03
00:33:21.958 : :04
00:44:51.772 : :05
00:56:45.527 : :06
01:07:12.487 : :07
01:21:14.661 : :08
--Релиз группы:

Проверено на встроенном плейере ТВ LG 42LW4500--
Остальные раздачи этого фильма (4)
Благодарности релизеру (51)

Торрент:

Статус:

Размер:

Зарегистрирован   [ 2014-03-02 03:55 ]

проверено

9.19 GB

 
 Мнение о фильме (78)

Пред.  1, 2, 3, 4  След.






3D на уровне, но сам фильм не понравился. Час посмотрел и выключил. Посмотреть разве что для галочки
 

Фильм не очень понравился,посмотрел за 3 раза,3D не впечатлило.
 

Скучный фильм, предсказуем. Мне не понравился! 3D эффекты на 4-ку
 
Автолюбитель Профиль 05-Мар-2014 09:39

3D отличное, сам фильм не понравился. Обычная малобюджетная фантастика
 

Боже! Более тупого фильма я по моему еще не видел в своей жизни. Даже Сталинград Бондарчука отдыхает по сравнению с этим уг.
 

фильм чем то напоминает Ван Хельсинг, но мне понравился. Качество, звук отличное. Но самое главное нет субтитров классссссс.
 

да откуда вытянули 7 на зд и 6 на сюжет!!?? фильм полный отстой ! Сюжет никакой, много абсурда и глупости. Дешевый закос под Ван Хельсинг. 3д очень слабое.
 

никакого эффекта 3D,о фильме вообще молчу
 

3d хорошее да и фильм понравился 8 из 10
 

at.forum, земляк)))
комменты хорошие, буду качать
 

На один раз фильм,посмотрела и забыла.
 

Понравился)))
 

филь нормальный но с черными полосами .
 

Отлично, супер!
 

хороший фильм ,3д тожэ
 

соглашусь со многими фильмец так себе из жанра когда делать нечего посмотрел и забыл время убил 3d не очень есть и круче. ожидал другого
 

Спасибо фильм супер -для тех кто дружит с воображением мысли.
 

Мне 40 лет, моё мнение- сюжет ниочём, вместе со мной смотрели 20- 25 летние- понравился фильм.. Опять же, все сошлись во мнении что 3D- супер! Вообще фильм должен понравится поклонникам "Ван Хельсинга"
 

Норм фильм
 

подскажите когда будет в формате Anamorph OverUnder
 

Страница 2 из 4

Пред.  1, 2, 3, 4  След.