Торренты   
 
 

 

Ангкор: Земля богов / Angkor: Land of the Gods [2011, BDRip, half1080p, Anamorph OverUnder]

Рейтинг 3D:
4 голосов
8.8
Рейтинг фильма:
4 голосов
8.8
 
Вы должны быть авторизированы,
чтобы ставить оценки


Ангкор: Земля богов
Angkor: Land of the Gods

Год выпуска: 2011
Страна: Южная Корея (Smithsonian Productions)
Жанр: Документальный, История
Продолжительность: 0:45:57 + 0:45:58
Перевод: Профессиональный двухголосый закадровый (Студия "СВ-Дубль"по заказу ГТРК "Культура")
Режиссеры: Dongjoon Kim, Yuyeol Kim
Ведущий: Yul Kwon-Описание: Ангкор-Ват — гигантский храмовый комплекс, посвящённый богу Вишну, в Камбодже.
Ангкор-Ват (Angkor Wat) в переводе с кхмерского означает «город-храм». Это самый популярный и известный объект из всего храмового комплекса Ангкор. Он представляет собой часть храмового комплекса г. Ангкор в индуистском стиле, который был древней столицей Камбоджи вплоть до XV в. На сегодняшний день он сохранился лучше других храмов, расположенных на территории этого города. Храм Ангкор-Ват даже изображен на государственном флаге Камбоджи.
Построен храм в период c 1113 по 1150 гг. при правлении короля Сурьявармана II (посмертное имя – Парамавишнулок) и, по одной из версий, возводился, как усыпальница для него...
Часть 1: Расцвет империи / Part 1: Empire Rising. Это история о юном принце с великими стремлениями, о короле, который силой взял власть. О правителе, оставившем в наследство чудесный храм, который на 30 метров выше Тадж-Махал и где камня больше, чем в пирамиде Хеопса. Величайшее из святилищ мира, оно находится в Камбодже. Это необычайный храмовый комплекс Ангкор-Ват...
Часть 2: Трон империи / Part 2: Throne of Power. 1177 год. Могущественная империя кхмеров веками контролировала Юго-Восточную Азию. Это была великая и утончённая цивилизация, она создала величайший на Земле храм, изумительный Ангкор-Ват, а столица империи была крупнейшим городом в мире. Но затем империя пришла в упадок, кхмеры пережили тяжёлое унижение, пав жертвой захватчиков. Единственная надежда была связана с принцем-изгнанником. В одном человеке сосредоточилось будущее великого государства...
- .
Русская дорога с рипа DeTorquemada, спасибо!
-Качество: BDRip (by Ash61)
Контейнер: MKV
Формат 3D: Half OverUnder / Вертикальная анаморфная стереопара
Порядок ракурсов: левый ракурс первый-Видео: AVC / 23,976 fps / 1920х1080p / 11.6 & 12.7 Mbps
Аудио:
#1 - Русский / AC3 / 48 KHz / 2 ch / 192 Kbps (DVO - канал "Культура")
#2 - Английский / AC3 / 48 KHz / 5.1 ch / 640 Kbps
Субтитры: Отсутствуют

MediaInfo первого файла (второй отличается только битрейтом видео)

General
Unique ID : 252602127672237229189495312914730460952 (0xBE0966718A574B428E16117446202718)
Complete name : E:\Angkor.LandOfTheGods-1(2011)3D-halfOU(Ash61).mkv
Format : Matroska
Format version : Version 2
File size : 4.09 GiB
Duration : 45mn 57s
Overall bit rate : 12.7 Mbps
Movie name : Ангкор: Земля богов. Empire Rising / Angkor: Land of the Gods. Расцвет империи (2011) 3D
Encoded date : UTC 2014-03-02 17:56:40
Writing application : mkvmerge v5.8.0 ('No Sleep / Pillow') built on Sep 2 2012 15:37:04
Writing library : libebml v1.2.3 + libmatroska v1.3.0
Video
ID : 1
Format : AVC
Format/Info : Advanced Video Codec
Format profile : High@L4.1
Format settings, CABAC : Yes
Format settings, ReFrames : 4 frames
Codec ID : V_MPEG4/ISO/AVC
Duration : 45mn 57s
Bit rate : 11.6 Mbps
Width : 1 920 pixels
Height : 1 080 pixels
Display aspect ratio : 16:9
Frame rate mode : Constant
Frame rate : 23.976 fps
Color space : YUV
Chroma subsampling : 4:2:0
Bit depth : 8 bits
Scan type : Progressive
Bits/(Pixel*Frame) : 0.234
Stream size : 3.74 GiB (91%)
Title : BDRip by Ash61
Writing library : x264 core 129 r2245 bc13772
Encoding settings : cabac=1 / ref=4 / deblock=1:-3:-3 / analyse=0x3:0x113 / me=umh / subme=10 / psy=1 / psy_rd=1.00:0.15 / mixed_ref=1 / me_range=32 / chroma_me=1 / trellis=2 / 8x8dct=1 / cqm=0 / deadzone=21,11 / fast_pskip=1 / chroma_qp_offset=-3 / threads=12 / lookahead_threads=2 / sliced_threads=0 / nr=0 / decimate=1 / interlaced=0 / bluray_compat=0 / constrained_intra=0 / bframes=10 / b_pyramid=2 / b_adapt=2 / b_bias=0 / direct=3 / weightb=1 / open_gop=0 / weightp=2 / keyint=250 / keyint_min=23 / scenecut=40 / intra_refresh=0 / rc_lookahead=60 / rc=crf / mbtree=1 / crf=17.0 / qcomp=0.70 / qpmin=0 / qpmax=69 / qpstep=4 / vbv_maxrate=40000 / vbv_bufsize=30000 / crf_max=0.0 / nal_hrd=none / frame-packing=4 / ip_ratio=1.40 / aq=1:0.70
Default : Yes
Forced : No
Audio #1
ID : 2
Format : AC-3
Format/Info : Audio Coding 3
Mode extension : CM (complete main)
Format settings, Endianness : Big
Codec ID : A_AC3
Duration : 45mn 57s
Bit rate mode : Constant
Bit rate : 192 Kbps
Channel(s) : 2 channels
Channel positions : Front: L R
Sampling rate : 48.0 KHz
Bit depth : 16 bits
Compression mode : Lossy
Stream size : 63.1 MiB (2%)
Title : DVO - студия "СВ-Дубль" по заказу ГТРК "Культура"
Language : Russian
Default : Yes
Forced : No
Audio #2
ID : 3
Format : AC-3
Format/Info : Audio Coding 3
Mode extension : CM (complete main)
Format settings, Endianness : Big
Codec ID : A_AC3
Duration : 45mn 57s
Bit rate mode : Constant
Bit rate : 640 Kbps
Channel(s) : 6 channels
Channel positions : Front: L C R, Side: L R, LFE
Sampling rate : 48.0 KHz
Bit depth : 16 bits
Compression mode : Lossy
Stream size : 210 MiB (5%)
Language : English
Default : No
Forced : No
Menu
00:00:00.000 : :1
00:03:23.662 : :2
00:13:18.047 : :3
00:23:08.137 : :4
00:29:54.251 : :5
00:38:19.881 : :6

Для оценки 3Д - Анимированные скрины


















Благодарности релизеру (18)

Торрент:

Статус:

Размер:

Зарегистрирован   [ 2014-03-05 21:35 ]

проверено

8.53 GB