Торренты   
 
 


Спасти Землю в 3Д / Есhо Рlаnеt 3D (Компин Кемгумнирд / Kompin Kemgumnird) [2012, Мультфильм, BDrip, 1080p]Full OverUnder / Вертикальная стереопара

Рейтинг 3D:
5 голосов
6.8
Рейтинг фильма:
5 голосов
7.2
 
Вы должны быть авторизированы,
чтобы ставить оценки


Спасти Землю / Echo Planet
Год выпуска: 2012
Страна: Таиланд
Студия: Moviemax, Kantana Animation Studios
Жанр: Мультфильм
Продолжительность: 1:22:05
Перевод: Профессиональный (дублированный)
Русские субтитры: нет
Режиссер на русском: Компин Кемгумнирд
Режиссер на английском: Kompin Kemgumnird
В ролях: Ноппан Чантасорн, Атхипич Чутиваткаджорнчай, Конгдей Джатуранрасаме, Тходсапол Сирививат, Нуэнгтхида Сопхон
Описание: Простой американский мальчик, Сэмуэл Джонсон младший, вступил в бойскауты и пропал во время похода. Правда, он сын президента, так что он не может пропасть просто так — и обязательно найдет выход. Сэм провалился сквозь землю и оказался на противоположном конце света- в непроходимых джунглях. Именно там его ожидает страшное известие — из-за того, что люди перестали беречь Землю наша планета в опасности и только он может ее спасти. А помогать ему в этом нелегком деле будет бесстрашная воительница Нарва со своим братом. Друзей ждут необыкновенны приключения и практически нереальная задача — cпасти Землю, когда против тебя весь мир.
Сэмпл: http://www.sendspace.com/file/xzyzkq
Качество: BDrip
Контейнер: MKV
Формат 3D: OverUnder / Вертикальная стереопара
Порядок ракурсов: левый ракурс первый
Видео кодек: x264
Аудио кодек: AC3
Видео: AVC / High@L5.0 / 23,976 fps / 1920х1600 / 27,2 Мбит/сек
Аудио: Русский / AC3 / 48 KHz / 5.1 ch / 256 Kbps
Аудио 2: Английский / AC3 / 48 KHz / 5.1 ch / 640 Kbps
Релиз группы: ВНИМАНИЕ ! На встроенных ТВ-плеерах работать не будет!!!
Железные плееры на которых воспроизводятся полные стереопары:Popcorn C-200 , Dune HD Smart D1 , Dune HD DUO , Dune HD Smart H1 , Dune HD Smart B1 , Dune HD Max , Dune HD TV-303D , Dune HD Base 3D , Dune HD TV-301

MediaInfo

Общее
Уникальный идентификатор : 220133376121101261961545215252326898677 (0xA59C2565B33293BF860EE60FA595DBF5)
Полное имя : E:\закачки\Eсhо Рlanеt.Rip by SeRoGa00.mkv
Формат : Matroska
Версия формата : Version 2
Размер файла : 8,56 Гбайт
Продолжительность : 1 ч. 22 м.
Общий поток : 14,9 Мбит/сек
Дата кодирования : UTC 2014-03-06 07:02:49
Программа кодирования : mkvmerge v3.4.0 ('Rapunzel') сборка от May 15 2010 09:38:20
Библиотека кодирования : libebml v0.8.0 + libmatroska v0.9.0
Видео
Идентификатор : 1
Формат : AVC
Формат/Информация : Advanced Video Codec
Профиль формата : High@L5.0
Параметр CABAC формата : Да
Параметр ReFrames формата : 4 кадра
Идентификатор кодека : V_MPEG4/ISO/AVC
Продолжительность : 1 ч. 22 м.
Битрейт : 13,7 Мбит/сек
Ширина : 1920 пикселей
Высота : 1600 пикселей
Соотношение сторон : 1,200
Частота кадров : 23,976 кадра/сек
Цветовое пространство : YUV
Субдискретизация насыщенности : 4:2:0
Битовая глубина : 8 бит
Тип развёртки : Прогрессивная
Бит/(Пиксели*Кадры) : 0.186
Размер потока : 7,87 Гбайт (92%)
Заголовок : Rip by SeRoGa00
Библиотека кодирования : x264 core 138 r2356 a1d3d17
Настройки программы : cabac=1 / ref=4 / deblock=1:-3:-3 / analyse=0x3:0x113 / me=umh / subme=9 / psy=1 / psy_rd=1.00:0.15 / mixed_ref=1 / me_range=24 / chroma_me=1 / trellis=2 / 8x8dct=1 / cqm=0 / deadzone=21,11 / fast_pskip=1 / chroma_qp_offset=-3 / threads=9 / lookahead_threads=1 / sliced_threads=0 / nr=0 / decimate=1 / interlaced=0 / bluray_compat=0 / constrained_intra=0 / bframes=8 / b_pyramid=2 / b_adapt=2 / b_bias=0 / direct=3 / weightb=1 / open_gop=0 / weightp=2 / keyint=250 / keyint_min=23 / scenecut=40 / intra_refresh=0 / rc_lookahead=60 / rc=crf / mbtree=1 / crf=18.0 / qcomp=0.60 / qpmin=10 / qpmax=69 / qpstep=4 / vbv_maxrate=40000 / vbv_bufsize=40000 / crf_max=0.0 / nal_hrd=none / ip_ratio=1.40 / aq=1:1.00
Язык : English
Аудио #1
Идентификатор : 2
Формат : AC-3
Формат/Информация : Audio Coding 3
Расширение режима : CM (complete main)
Идентификатор кодека : A_AC3
Продолжительность : 1 ч. 22 м.
Вид битрейта : Постоянный
Битрейт : 256 Кбит/сек
Каналы : 6 каналов
Расположение каналов : Front: L C R, Side: L R, LFE
Частота : 48,0 КГц
Битовая глубина : 16 бит
Метод сжатия : С потерями
Размер потока : 150 Мбайт (2%)
Язык : Russian
Аудио #2
Идентификатор : 3
Формат : AC-3
Формат/Информация : Audio Coding 3
Расширение режима : CM (complete main)
Идентификатор кодека : A_AC3
Продолжительность : 1 ч. 22 м.
Вид битрейта : Постоянный
Битрейт : 640 Кбит/сек
Каналы : 6 каналов
Расположение каналов : Front: L C R, Side: L R, LFE
Частота : 48,0 КГц
Битовая глубина : 16 бит
Метод сжатия : С потерями
Размер потока : 376 Мбайт (4%)
Язык : English

Скриншоты


Благодарности релизеру (8)

Торрент:

Статус:

Размер:

Зарегистрирован   [ 2014-03-06 12:25 ]

проверено

8.56 GB