Торренты   
 
 

 

Прогулки с динозаврами в 3Д / Walking with Dinosaurs 3D (2013) [BDRip, 1080p] Anamorph SidebySide / Горизонтальная анаморфная стереопара

Рейтинг 3D:
88 голосов
7.8
Рейтинг фильма:
87 голосов
7.6
 
Вы должны быть авторизированы,
чтобы ставить оценки


Прогулки с динозаврами в 3Д / Walking with Dinosaurs 3D
Год выпуска: 2014
Жанр: Семейный
Выпущено: США, Великобритания, Индия, Animal Logic, BBC Earth, BBC Worldwide, Evergreen Films, Reliance Big Entertainment
Продолжительность: 01:27:30
Перевод: Дублированный [Лицензия]
Режиссер: Бэрри Кук, Нил Найтингейл
В ролях: Чарли Роу, Карл Урбан, Ангури Райс, Джон Легуизамо, Джастин Лонг, Скайлер Стоун, Тия Сиркар, Клэй Сэвадж, Джуд Тинсели, Мэри Мэтилин Маусер
Описание: «Прогулки с динозаврами» — это увлекательное путешествие с полным погружением в 3D-реальность, созданную по инновационной технологии CGI. Мы увидим, как выглядели динозавры, как они жили и с какими опасностями им пришлось столкнуться. Главный герой истории — храбрый динозаврик Патчи, он самый маленький в семье, но именно ему предстоит стать лидером и спасти своих сородичей.

Формат 3D: Anamorph SidebySide / Горизонтальная анаморфная стереопара
Порядок ракурсов: правый ракурс первый
Качество: BDRip
Контейнер: MKV
Видео кодек: x264
Аудио кодек: AC3
Качество видео: BDRip
Видео: MPEG-4 AVC/X264, 1920x1080, 23.976 fps, 11.3 Mbps
Аудио 1: Русский, AC3, 44.1 KHz, 6 ch, 448 Kbps
Аудио 2: Українська, AC3, 44.1 KHz, 6 ch, 448 Kbps

Скриншоты


MediaInfo

Общее
Уникальный идентификатор : 206988861595716189301568134893678853966 (0x9BB89ACBAA3E62058F57447CEAEF7F4E)
Полное имя : D:\Download\Walking With Dinosaurs 3D 2013 BDRip 1080p halfSbS (IgorekSh).mkv
Формат : Matroska
Версия формата : Version 2
Размер файла : 7,56 Гбайт
Продолжительность : 1 ч. 27 м.
Общий поток : 12,4 Мбит/сек
Название фильма :
Дата кодирования : UTC 2014-03-14 11:14:40
Программа кодирования : mkvmerge v4.0.0 ('The Stars were mine') сборка от Jun 6 2010 16:18:42
Библиотека кодирования : libebml v1.0.0 + libmatroska v1.0.0
Видео
Идентификатор : 1
Формат : AVC
Формат/Информация : Advanced Video Codec
Профиль формата : High@L4.1
MultiView_Count : 2
MultiView_Layout : Right Eye
Параметр CABAC формата : Да
Параметр ReFrames формата : 4 кадра
Идентификатор кодека : V_MPEG4/ISO/AVC
Продолжительность : 1 ч. 27 м.
Битрейт : 11,2 Мбит/сек
Ширина : 1920 пикселей
Высота : 1080 пикселей
Соотношение сторон : 16:9
Режим частоты кадров : Постоянный
Частота кадров : 23,976 кадра/сек
Цветовое пространство : YUV
Субдискретизация насыщенности : 4:2:0
Битовая глубина : 8 бит
Тип развёртки : Прогрессивная
Бит/(Пиксели*Кадры) : 0.226
Размер потока : 6,87 Гбайт (91%)
Заголовок : IgorekSh
Язык : English
Default : Нет
Forced : Нет
Аудио #1
Идентификатор : 2
Формат : AC-3
Формат/Информация : Audio Coding 3
Расширение режима : CM (complete main)
Параметр Endianness формата : Big
Идентификатор кодека : A_AC3
Продолжительность : 1 ч. 27 м.
Вид битрейта : Постоянный
Битрейт : 448 Кбит/сек
Каналы : 6 каналов
Расположение каналов : Front: L C R, Side: L R, LFE
Частота : 48,0 КГц
Битовая глубина : 16 бит
Метод сжатия : С потерями
Размер потока : 280 Мбайт (4%)
Заголовок :
Язык : Russian
Default : Нет
Forced : Нет
Аудио #2
Идентификатор : 3
Формат : AC-3
Формат/Информация : Audio Coding 3
Расширение режима : CM (complete main)
Параметр Endianness формата : Big
Идентификатор кодека : A_AC3
Продолжительность : 1 ч. 27 м.
Вид битрейта : Постоянный
Битрейт : 448 Кбит/сек
Каналы : 6 каналов
Расположение каналов : Front: L C R, Side: L R, LFE
Частота : 44,1 КГц
Битовая глубина : 16 бит
Метод сжатия : С потерями
Размер потока : 280 Мбайт (4%)
Заголовок : ДОЛОЙ РЕКЛАМУ!
Язык : Ukrainian
Default : Нет
Forced : Нет
Меню
00:00:00.000 : en:00:00:00.000
00:01:44.771 : en:00:01:44.771
00:05:21.196 : en:00:05:21.196
00:07:27.989 : en:00:07:27.989
00:12:06.351 : en:00:12:06.351
00:14:47.220 : en:00:14:47.220
00:17:04.190 : en:00:17:04.190
00:18:30.609 : en:00:18:30.609
00:21:47.389 : en:00:21:47.389
00:24:30.761 : en:00:24:30.761
00:27:07.459 : en:00:27:07.459
00:28:28.206 : en:00:28:28.206
00:30:40.756 : en:00:30:40.756
00:32:58.643 : en:00:32:58.643
00:37:38.006 : en:00:37:38.006
00:42:02.562 : en:00:42:02.562
00:44:00.096 : en:00:44:00.096
00:47:36.103 : en:00:47:36.103
00:50:59.473 : en:00:50:59.473
00:52:51.043 : en:00:52:51.043
00:56:49.281 : en:00:56:49.281
00:58:20.997 : en:00:58:20.997
01:02:48.973 : en:01:02:48.973
01:06:45.627 : en:01:06:45.627
01:10:40.319 : en:01:10:40.319
01:16:54.485 : en:01:16:54.485
01:18:40.466 : en:01:18:40.466
01:20:15.811 : en:01:20:15.811
Остальные раздачи этого фильма (4)
Благодарности релизеру (22)

Торрент:

Статус:

Размер:

Зарегистрирован   [ 2014-03-14 15:45 ]

проверено

7.56 GB

 
 Мнение о фильме (31)

1, 2  След.






сердецний фильм
 

мне понравилось
 

Очень понравился смотрел с ребёнком. Есть моменты вылетов и выпригивание зверей. Аж подскочили от неожидоности. Ребёнок был в восхищении 9 из 10. Чего то нехватало всётаки.
 

3д ерундовое, фильм средненький, хотя для детей младшего возраста, самое то.
 

Фильм супер! 3d тоже спасибо !!!
 

Фильм прикольный, а 3d вообще ни о чем.
 

Фильм класс
 

Семейный такой фильмец. Посмотреть можно.
 

Спасибо за релиз! Фильм отличный, как для детей так и для взрослых.
 

3д не очень,но фильм хороший ,добрый.при просмотре очень устали глаза,при просмотре других фильмов такого не было(телик 41 дюйм)
 

Непондравился. Филмец для детей. 3D - 6/10
 

Детская сказка не о чем.
За релиз спасибо.
 

мульт отличный 3д- замечательное
 

3D - отличное, фильм детский, но посмотрел с удовольствием
 

всей семье понравилось, правда задний план двоится, а так фильм, перевод хороший, всё устраивает. СОВЕТУЮ ПОСМОТРЕТЬ!!!
 

Детям понравилось, а мне не очень, я ожидала чего-то более грандиозного
 

Фильм для детей, 3д хорошее.
 

Хороший, продуманный фильм и сюжет и информация, смотрел с ребенком 4,5 года, который уже смотрел кучу документалистики и всяких тарбозавров, он с удивлением поведал-я испугался, даже сердце застучало, это высокая оценка. Спасибо релизеру,
 
Всеволодович Профиль 24-Мар-2014 17:13

Вот хотелось бы знать ,когда люди высказывают мнение о 3D эффектах именно данного фильма "Прогулки с динозаврами 3D" в духе : 3D не очень , 3D вообще ни о чем ,3D ерундовое ... Вот у меня возникает мнение ,что они смотрели данный фильм на кофеварке ,а не 3D телевизоре. Потому что наверное ждут именно непрекращающихся бесконечных вылетов ? В моем понимании фильм в 3D - это фильм в объемном изображении , а всякие вылеты ,приятный бонус к этому самому изображению. Я смотрел данный фильм на обыкновенном 3D телевизоре Samsung серии 6030 , всего то 32 дюйма (не супер совсем по нынешним меркам) ,но 3D в данном фильме отличное ,как например и в Аватаре и Парке Юрского периода или некоторых документалках IMAX о природе и жизни в океанах. Ну хотя мнения ,соглашусь, разные бывают.
 

Непонятно для какого возраста фильм, для детей мне кажется рановато и есть спорные моменты, для взрослых - мне так не очень понравился. Идея не очень. Картинка хорошая
 

Страница 1 из 2

1, 2  След.