Торренты   
 
 

 

Холодное сердце в 3Д / Frozen 3D (2013) [BDRip, 1080p] Anamorph SidebySide / Горизонтальная анаморфная стереопара

Рейтинг 3D:
108 голосов
8.4
Рейтинг фильма:
108 голосов
8.4
 
Вы должны быть авторизированы,
чтобы ставить оценки


Холодное сердце в 3Д /Frozen 3D
Год выпуска: 2013
Жанр: мультфильм, мюзикл, приключения
Страна: США
Продолжительность: 01:42:13
Перевод: Дублированный [Чистый звук]
Режиссёр: Крис Бак, Дженнифер Ли / Chris Buck, Jennifer Lee
Сценарий: Дженнифер Ли, Ганс Кристиан Андерсен, Крис Бак
Продюссер: Питер Дель Вечо, Джон Лассетер, Айми Скрибнер
В ролях: Кристен Белл, Идина Мензел, Джонатан Грофф, Джош Гад, Сантино Фонтана, Алан Тьюдик, Киаран Хайндс, Крис Уильямс, Стивен Дж. Андерсон, Майа Уилсон
Описание: Когда древнее предсказание сбывается, и королевство погружается в объятия вечной зимы, трое бесстрашных героев — принцесса Анна, отважный Кристофф и его верный олень Свен — отправляются в горы, чтобы найти сестру Анны, Эльзу, которая может снять со страны леденящее заклятие. По пути их ждет множество увлекательных сюрпризов и захватывающих приключений: встреча с мистическими троллями, знакомство с очаровательным снеговиком по имени Олаф, горные вершины покруче Эвереста и магия в каждой снежинке. Анне и Кристоффу предстоит сплотиться и противостоять могучей стихии, чтобы спасти королевство и тех, кто им дорог…

Формат 3D: Anamorph SidebySide / Горизонтальная анаморфная стереопара
Порядок ракурсов: левый ракурс первый
Качество: BDRip
Контейнер: MKV
Видео кодек: x264
Аудио кодек: AC3
Качество видео: BDRip
Видео: MPEG-4 AVC/X264, 1920x1080, 23.976 fps, 9551 Kbps
Аудио 1: Русский, AC3, 44.1 KHz, 2 ch, 384 Kbps - [Чистый звук]
Аудио 2: Українська, AC3, 44.1 KHz, 2 ch, 192 Kbps - [Mic]
Аудио 3: English, AC3, 44.1 KHz, 6 ch, 448 Kbps - [Original BD3D]

Скриншоты


MediaInfo

Общее
Уникальный идентификатор : 201553612382617568075328112772203129814 (0x97A1D051D5E11A8EBAFE5A4227BBABD6)
Полное имя : D:\Download\Frozen 3D 2013 BDRip 1080p halfSbS (IgorekSh) [ДОЛОЙ РЕКЛАМУ!].mkv
Формат : Matroska
Версия формата : Version 2
Размер файла : 7,70 Гбайт
Продолжительность : 1 ч. 42 м.
Общий поток : 10,8 Мбит/сек
Название фильма : ДОЛОЙ РЕКЛАМУ!
Дата кодирования : UTC 2014-03-15 07:13:44
Программа кодирования : mkvmerge v4.0.0 ('The Stars were mine') сборка от Jun 6 2010 16:18:42
Библиотека кодирования : libebml v1.0.0 + libmatroska v1.0.0
Видео
Идентификатор : 1
Формат : AVC
Формат/Информация : Advanced Video Codec
Профиль формата : High@L4.1
MultiView_Count : 2
MultiView_Layout : Right Eye
Параметр CABAC формата : Да
Параметр ReFrames формата : 2 кадра
Параметр GOP формата : M=3, N=24
Идентификатор кодека : V_MPEG4/ISO/AVC
Продолжительность : 1 ч. 42 м.
Битрейт : 9550 Кбит/сек
Ширина : 1920 пикселей
Высота : 1080 пикселей
Соотношение сторон : 16:9
Режим частоты кадров : Постоянный
Частота кадров : 23,976 кадра/сек
Цветовое пространство : YUV
Субдискретизация насыщенности : 4:2:0
Битовая глубина : 8 бит
Тип развёртки : Прогрессивная
Бит/(Пиксели*Кадры) : 0.192
Размер потока : 6,82 Гбайт (89%)
Заголовок : IgorekSh [ДОЛОЙ РЕКЛАМУ!]
Библиотека кодирования : x264 core
Язык : English
Default : Нет
Forced : Нет
Основные цвета : BT.709
Характеристики трансфера : BT.709
Коэффициенты матрицы : BT.709
Аудио #1
Идентификатор : 2
Формат : AC-3
Формат/Информация : Audio Coding 3
Расширение режима : CM (complete main)
Параметр Endianness формата : Big
Идентификатор кодека : A_AC3
Продолжительность : 1 ч. 42 м.
Вид битрейта : Постоянный
Битрейт : 384 Кбит/сек
Каналы : 2 канала
Расположение каналов : Front: L R
Частота : 48,0 КГц
Битовая глубина : 16 бит
Метод сжатия : С потерями
Размер потока : 281 Мбайт (4%)
Заголовок : ДОЛОЙ РЕКЛАМУ!
Язык : Russian
Default : Нет
Forced : Нет
Аудио #2
Идентификатор : 3
Формат : AC-3
Формат/Информация : Audio Coding 3
Расширение режима : CM (complete main)
Параметр Endianness формата : Big
Идентификатор кодека : A_AC3
Продолжительность : 1 ч. 42 м.
Вид битрейта : Постоянный
Битрейт : 192 Кбит/сек
Каналы : 2 канала
Расположение каналов : Front: L R
Частота : 48,0 КГц
Битовая глубина : 16 бит
Метод сжатия : С потерями
Размер потока : 140 Мбайт (2%)
Заголовок : ДОЛОЙ РЕКЛАМУ!
Язык : Ukrainian
Default : Нет
Forced : Нет
Аудио #3
Идентификатор : 4
Формат : AC-3
Формат/Информация : Audio Coding 3
Расширение режима : CM (complete main)
Параметр Endianness формата : Big
Идентификатор кодека : A_AC3
Продолжительность : 1 ч. 42 м.
Вид битрейта : Постоянный
Битрейт : 448 Кбит/сек
Каналы : 6 каналов
Расположение каналов : Front: L C R, Side: L R, LFE
Частота : 48,0 КГц
Битовая глубина : 16 бит
Метод сжатия : С потерями
Размер потока : 328 Мбайт (4%)
Заголовок : ДОЛОЙ РЕКЛАМУ!
Язык : English
Default : Нет
Forced : Нет
Меню
00:00:00.000 : en:00:00:00.000
00:05:59.818 : en:00:05:59.818
00:11:37.947 : en:00:11:37.947
00:19:53.734 : en:00:19:53.734
00:31:03.195 : en:00:31:03.195
00:38:39.484 : en:00:38:39.484
00:44:21.284 : en:00:44:21.284
00:50:51.507 : en:00:50:51.507
00:57:48.381 : en:00:57:48.381
01:02:57.399 : en:01:02:57.399
01:09:36.047 : en:01:09:36.047
01:13:34.869 : en:01:13:34.869
01:18:07.599 : en:01:18:07.599
01:22:33.740 : en:01:22:33.740
01:27:10.809 : en:01:27:10.809
01:32:33.506 : en:01:32:33.506
Остальные раздачи этого фильма (4)
Благодарности релизеру (50)

Торрент:

Статус:

Размер:

Зарегистрирован   [ 2014-03-15 11:36 ]

проверено

7.7 GB

 
 Мнение о фильме (42)

1, 2, 3  След.






Нудные песни. На середине выключили. Хотя люблю мульты, но это - нудно...мюзикл всё испортил.
 

Отличный мульт Советую посмотреть всем!
 

Спасибо! Красивый мульт
 

спасибо!мультик отличный!
 

Мультфильм отличный.Спасибо.
 

Если можно ссылочку на лицензионный звук
 

Спасибо! Мультик отличный. Дети рады.
 

uerbujhm,
Если можно ссылочку на лицензионный звук
http://yadi.sk/d/d0BpDuXALNhRN
(Дубляж - BD 3D CEE)
 

Мультик хороший.Спасибо за Crop без полос и за Дубляж - BD 3D CEE.
 

Я извиняюсь может у кого есть украинский дубляж,если можно скиньте ссылочку
за ранее спасибо
 

мульт отличный качество 3д на высоте и сюжет интересный спасибо
 

Ничего так, на разок посмотреть можно.
Много поют, поржать особо не над чем.
 

Вполне добрый мульт.
Голос певицы озвучивающий песни ст. сестры лично мне не понравился и не подходит персонажу. Если бы не он то замечаний вообще не было бы (но это минус скорее дубляжа а не мульта).
В остальном - отличная добрая история, красивая графика - нет особого ощущения плассмассовости лиц и фигур.
А снеговик заставил реально посмеяться.
 

мультик исключительно для детей!!!Я никогда не засыпал при просмотре кино/ мультика !но это снотворное меня усыпило!!! Самый худший за последние 20 лет!!!
 

Согласен с разочарованными зрителями. Это не мультик, а мюзикл. Причем скучный до безобразия. Первый 3D-мульт, который выключил на середине, так и не дождавшись чего-либо интересного или смешного.
 

Те кто хвалят этот мульт наверное не видели другие мультики Диснея. У меня была коллекция всех их мультов. Когда дочка была маленькая смотрел с ней по десять раз "Тарзан" "Мулан" да и из последних "Рапунцель" можно много раз посмотреть, Но я никогда не выключал мультики
на середине. Когда будете смотреть не стесняйтесь - выключайте на середине. На всякий случай скачал с одноголосым переводом , может вина дубляжа. Попробую посмотреть с "Живовым".
 

На всякий случай скачал с одноголосым переводом , может вина дубляжа.
Именно так. С оригинальной звуковой дорожкой фильм на мой взгляд воспринимается в разы лучше. В русском дубляже что-то уж очень схалтурили. Только пересмотрев фильм в оригинале, я наконец смог понять за что же ему дали эти два Оскара. :) English там кстати очень простой и понятный, не требующий шибко большого словарного запаса. Я бы даже сказал по некоторым фразам, что он ближе не к литературному, а к "техническому" :-)
 

Хороший мульт , понравился
 

Давно искал, хороший фильм !!!
 
Евгений110852 Профиль 12-Май-2014 09:52

мульт хороший и 3 д тоже! Легкий и веселый такой!)
 

Страница 1 из 3

1, 2, 3  След.