Торренты   
 
 

 

Прогулки с динозаврами 3D / Walking with Dinosaurs 3D (Бэрри Кук, Нил Найтингейл) [2013 г., Anamorph OverUnder]

Рейтинг 3D:
88 голосов
7.8
Рейтинг фильма:
87 голосов
7.6
 
Вы должны быть авторизированы,
чтобы ставить оценки



Название: Прогулки с динозаврами 3D
Год выпуска: 2013
Страна: США, Великобритания, Индия
Жанр: семейный
Продолжительность: 1:27:31
Перевод: Профессиональный (полное дублирование)
Режиссер: Бэрри Кук, Нил Найтингейл
В ролях: Чарли Роу, Карл Урбан, Ангури Райс, Джон Легуизамо, Джастин Лонг, Скайлер Стоун, Тия Сиркар, Клэй Сэвадж, Джуд Тинсели, Мэри Мэтилин Маусер
Описание: «Прогулки с динозаврами» — это увлекательное путешествие с полным погружением в 3D-реальность, созданную по инновационной технологии CGI. Мы увидим, как выглядели динозавры, как они жили и с какими опасностями им пришлось столкнуться. Главный герой истории — храбрый динозаврик Патчи, он самый маленький в семье, но именно ему предстоит стать лидером и спасти своих сородичей.
Качество: BDrip
Контейнер: MKV
Формат 3D: Anamorph OverUnder / Вертикальная анаморфная стереопара
Порядок ракурсов: левый ракурс первый
Видео кодек: x264
Аудио кодек: AC-3
Видео: AVC, High@L4.1, 1920х1080, 23,976 кадра/сек, 10,4 Мбит/сек
Аудио:
#1 - Русский / AC3 / 48 KHz / 5.1 ch / 640 Kbps (Дубляж)
#2 - Английский / AC3 / 48 KHz / 5.1 ch / 640 Kbps (Original)
Субтитры: русские, украинские, английские

Скриншоты

Media Info

Общее
Уникальный идентификатор : 240748187615405424040727569728358874433 (0xB51E6A1366D64A2A9A906530D5C87D41)
Полное имя : H:\Source\WalkingWithDinosaurs.3D.2013.BDrip.Half.OU.x264.AC3.(itsamna).mkv
Формат : Matroska
Версия формата : Version 4 / Version 2
Размер файла : 7,30 Гбайт
Продолжительность : 1 ч. 27 м.
Общий поток : 11,9 Мбит/сек
Название фильма : Walking with Dinosaurs 3D (2013)
Дата кодирования : UTC 2014-03-15 08:04:11
Программа кодирования : mkvmerge v6.3.0 ('You can't stop me!') built on Jul 19 2013 16:27:38
Библиотека кодирования : libebml v1.3.0 + libmatroska v1.4.1
Видео
Идентификатор : 1
Формат : AVC
Формат/Информация : Advanced Video Codec
Профиль формата : High@L4.1
Параметр CABAC формата : Да
Параметр ReFrames формата : 4 кадра
Идентификатор кодека : V_MPEG4/ISO/AVC
Продолжительность : 1 ч. 27 м.
Битрейт : 10,4 Мбит/сек
Ширина : 1920 пикселей
Высота : 1080 пикселей
Соотношение сторон : 16:9
Режим частоты кадров : Постоянный
Частота кадров : 23,976 кадра/сек
Цветовое пространство : YUV
Субдискретизация насыщенности : 4:2:0
Битовая глубина : 8 бит
Тип развёртки : Прогрессивная
Бит/(Пиксели*Кадры) : 0.210
Размер потока : 6,37 Гбайт (87%)
Заголовок : rip by itsamna aka StarStranger
Библиотека кодирования : x264 core 130 r2273 b3065e6
Настройки программы : cabac=1 / ref=4 / deblock=1:-3:-3 / analyse=0x3:0x133 / me=umh / subme=10 / psy=1 / psy_rd=1.00:0.15 / mixed_ref=1 / me_range=32 / chroma_me=1 / trellis=2 / 8x8dct=1 / cqm=0 / deadzone=21,11 / fast_pskip=0 / chroma_qp_offset=-3 / threads=12 / lookahead_threads=2 / sliced_threads=0 / nr=0 / decimate=1 / interlaced=0 / bluray_compat=0 / constrained_intra=0 / bframes=8 / b_pyramid=2 / b_adapt=2 / b_bias=0 / direct=3 / weightb=1 / open_gop=0 / weightp=2 / keyint=250 / keyint_min=23 / scenecut=40 / intra_refresh=0 / rc_lookahead=60 / rc=crf / mbtree=1 / crf=18.0 / qcomp=0.60 / qpmin=0 / qpmax=69 / qpstep=4 / vbv_maxrate=50000 / vbv_bufsize=62500 / crf_max=0.0 / nal_hrd=none / ip_ratio=1.40 / aq=1:0.90
Default : Да
Forced : Нет
Аудио #1
Идентификатор : 2
Формат : AC-3
Формат/Информация : Audio Coding 3
Расширение режима : CM (complete main)
Параметр Endianness формата : Big
Идентификатор кодека : A_AC3
Продолжительность : 1 ч. 27 м.
Вид битрейта : Постоянный
Битрейт : 640 Кбит/сек
Каналы : 6 каналов
Расположение каналов : Front: L C R, Side: L R, LFE
Частота : 48,0 КГц
Битовая глубина : 16 бит
Метод сжатия : С потерями
Размер потока : 401 Мбайт (5%)
Язык : Russian
Default : Да
Forced : Нет
Аудио #2
Идентификатор : 3
Формат : AC-3
Формат/Информация : Audio Coding 3
Расширение режима : CM (complete main)
Параметр Endianness формата : Big
Идентификатор кодека : A_AC3
Продолжительность : 1 ч. 27 м.
Вид битрейта : Постоянный
Битрейт : 640 Кбит/сек
Каналы : 6 каналов
Расположение каналов : Front: L C R, Side: L R, LFE
Частота : 48,0 КГц
Битовая глубина : 16 бит
Метод сжатия : С потерями
Размер потока : 401 Мбайт (5%)
Язык : English
Default : Нет
Forced : Нет
Текст #1
Идентификатор : 4
Формат : UTF-8
Идентификатор кодека : S_TEXT/UTF8
Идентификатор кодека/Информация : UTF-8 Plain Text
Язык : Russian
Default : Нет
Forced : Нет
Текст #2
Идентификатор : 5
Формат : UTF-8
Идентификатор кодека : S_TEXT/UTF8
Идентификатор кодека/Информация : UTF-8 Plain Text
Язык : Ukrainian
Default : Нет
Forced : Нет
Текст #3
Идентификатор : 6
Формат : UTF-8
Идентификатор кодека : S_TEXT/UTF8
Идентификатор кодека/Информация : UTF-8 Plain Text
Язык : English
Default : Нет
Forced : Нет
Меню
00:00:00.000 : :01
00:01:52.529 : :02
00:05:28.954 : :03
00:07:35.747 : :04
00:12:14.108 : :05
00:14:54.977 : :06
00:17:11.948 : :07
00:18:38.367 : :08
00:21:55.147 : :09
00:24:38.519 : :10
00:27:15.217 : :11
00:28:35.964 : :12
00:30:48.513 : :13
00:33:06.401 : :14
00:37:45.763 : :15
00:42:10.319 : :16
00:44:07.853 : :17
00:47:43.861 : :18
00:51:07.231 : :19
00:52:58.801 : :20
00:56:57.039 : :21
00:58:28.755 : :22
01:02:56.731 : :23
01:06:53.384 : :24
01:10:48.077 : :25
01:17:02.243 : :26
01:18:48.223 : :27
01:20:23.569 : :28
--Релиз группы:

Проверено на встроенном плейере ТВ LG 42LW4500
--
Остальные раздачи этого фильма (4)
Благодарности релизеру (16)

Торрент:

Статус:

Размер:

Зарегистрирован   [ 2014-03-15 22:22 ]

проверено

7.31 GB

 
 Мнение о фильме (31)

1, 2  След.






сердецний фильм
 

мне понравилось
 

Очень понравился смотрел с ребёнком. Есть моменты вылетов и выпригивание зверей. Аж подскочили от неожидоности. Ребёнок был в восхищении 9 из 10. Чего то нехватало всётаки.
 

3д ерундовое, фильм средненький, хотя для детей младшего возраста, самое то.
 

Фильм супер! 3d тоже спасибо !!!
 

Фильм прикольный, а 3d вообще ни о чем.
 

Фильм класс
 

Семейный такой фильмец. Посмотреть можно.
 

Спасибо за релиз! Фильм отличный, как для детей так и для взрослых.
 

3д не очень,но фильм хороший ,добрый.при просмотре очень устали глаза,при просмотре других фильмов такого не было(телик 41 дюйм)
 

Непондравился. Филмец для детей. 3D - 6/10
 

Детская сказка не о чем.
За релиз спасибо.
 

мульт отличный 3д- замечательное
 

3D - отличное, фильм детский, но посмотрел с удовольствием
 

всей семье понравилось, правда задний план двоится, а так фильм, перевод хороший, всё устраивает. СОВЕТУЮ ПОСМОТРЕТЬ!!!
 

Детям понравилось, а мне не очень, я ожидала чего-то более грандиозного
 

Фильм для детей, 3д хорошее.
 

Хороший, продуманный фильм и сюжет и информация, смотрел с ребенком 4,5 года, который уже смотрел кучу документалистики и всяких тарбозавров, он с удивлением поведал-я испугался, даже сердце застучало, это высокая оценка. Спасибо релизеру,
 
Всеволодович Профиль 24-Мар-2014 17:13

Вот хотелось бы знать ,когда люди высказывают мнение о 3D эффектах именно данного фильма "Прогулки с динозаврами 3D" в духе : 3D не очень , 3D вообще ни о чем ,3D ерундовое ... Вот у меня возникает мнение ,что они смотрели данный фильм на кофеварке ,а не 3D телевизоре. Потому что наверное ждут именно непрекращающихся бесконечных вылетов ? В моем понимании фильм в 3D - это фильм в объемном изображении , а всякие вылеты ,приятный бонус к этому самому изображению. Я смотрел данный фильм на обыкновенном 3D телевизоре Samsung серии 6030 , всего то 32 дюйма (не супер совсем по нынешним меркам) ,но 3D в данном фильме отличное ,как например и в Аватаре и Парке Юрского периода или некоторых документалках IMAX о природе и жизни в океанах. Ну хотя мнения ,соглашусь, разные бывают.
 

Непонятно для какого возраста фильм, для детей мне кажется рановато и есть спорные моменты, для взрослых - мне так не очень понравился. Идея не очень. Картинка хорошая
 

Страница 1 из 2

1, 2  След.