Торренты   
 
 

 

Bий (Oлег Стeпченкo) [2013 г., Anamorph OverUnder]

Рейтинг 3D:
223 голосов
7.2
Рейтинг фильма:
227 голосов
6.2
 
Вы должны быть авторизированы,
чтобы ставить оценки


Вий Год выпуска: 2013
Страна: Россия, Украина, Германия, Великобритания, Чехия
Жанр: фэнтези, триллер, приключения
Продолжительность: 2:10:12
Перевод: Не требуется
Режиссер: Олег Степченко
В ролях: Джейсон Флеминг, Андрей Смоляков, Алексей Чадов, Агния Дитковските, Юрий Цурило, Ольга Зайцева, Александр Яковлев, Игорь Жижикин, Валерий Золотухин, Нина Русланова, Андрей Фединчик, Борис Георгиевский
Описание: Начало XVIII века. Картограф Джонатан Грин совершает научное путешествие из Европы на Восток. Проследовав через Трансильванию и преодолев Карпатские горы, он попадает в затерянную среди непроходимых лесов деревушку. Только воля случая и густой туман могли занести его в это проклятое место. Народ, живущий здесь, не похож ни на один доселе виданный путешественником. Эти люди, оградив себя от остального мира глубоким рвом, наивно верят, что смогут уберечься от нечисти, не понимая, что она уже давно поселилась в их душах и только ждёт случая, чтобы вырваться наружу. Даже в страшном сне учёный-материалист не предполагал, что здесь ему уготована встреча с верным слугой дьявола.
Качество: BDrip
Контейнер: MKV
Формат 3D: Anamorph OverUnder / Вертикальная анаморфная стереопара
Порядок ракурсов: левый ракурс первый
Видео кодек: x264
Аудио кодек: AC-3
Видео: AVC, High@L4.1, 1920х1080, 23,976 кадра/сек, 10,6 Мбит/сек
Аудио: Русский / AC3 / 48 KHz / 5.1 ch / 640 Kbps
Субтитры: отсутствуют

Скриншоты

Media Info

Общее
Уникальный идентификатор : 240878908804936352208745302757498894351 (0xB5379720C6B424AF81F275372417380F)
Полное имя : H:\Source\Viy.3D.2013.BDrip.Half.OU.x264.AC3.(itsamna).mkv
Формат : Matroska
Версия формата : Version 4 / Version 2
Размер файла : 10,4 Гбайт
Продолжительность : 2 ч. 10 м.
Общий поток : 11,5 Мбит/сек
Название фильма : Вий 3D (2013)
Дата кодирования : UTC 2014-03-16 10:09:55
Программа кодирования : mkvmerge v6.3.0 ('You can't stop me!') built on Jul 19 2013 16:27:38
Библиотека кодирования : libebml v1.3.0 + libmatroska v1.4.1
Видео
Идентификатор : 1
Формат : AVC
Формат/Информация : Advanced Video Codec
Профиль формата : High@L4.1
Параметр CABAC формата : Да
Параметр ReFrames формата : 4 кадра
Идентификатор кодека : V_MPEG4/ISO/AVC
Продолжительность : 2 ч. 10 м.
Битрейт : 10,6 Мбит/сек
Ширина : 1920 пикселей
Высота : 1080 пикселей
Соотношение сторон : 16:9
Режим частоты кадров : Постоянный
Частота кадров : 23,976 кадра/сек
Цветовое пространство : YUV
Субдискретизация насыщенности : 4:2:0
Битовая глубина : 8 бит
Тип развёртки : Прогрессивная
Бит/(Пиксели*Кадры) : 0.213
Размер потока : 9,64 Гбайт (92%)
Заголовок : rip by itsamna aka StarStranger (3D-RuGroup)
Библиотека кодирования : x264 core 130 r2273 b3065e6
Настройки программы : cabac=1 / ref=4 / deblock=1:-3:-3 / analyse=0x3:0x133 / me=umh / subme=10 / psy=1 / psy_rd=1.00:0.15 / mixed_ref=1 / me_range=32 / chroma_me=1 / trellis=2 / 8x8dct=1 / cqm=0 / deadzone=21,11 / fast_pskip=0 / chroma_qp_offset=-3 / threads=12 / lookahead_threads=2 / sliced_threads=0 / nr=0 / decimate=1 / interlaced=0 / bluray_compat=0 / constrained_intra=0 / bframes=8 / b_pyramid=2 / b_adapt=2 / b_bias=0 / direct=3 / weightb=1 / open_gop=0 / weightp=2 / keyint=250 / keyint_min=23 / scenecut=40 / intra_refresh=0 / rc_lookahead=60 / rc=crf / mbtree=1 / crf=18.0 / qcomp=0.60 / qpmin=0 / qpmax=69 / qpstep=4 / vbv_maxrate=50000 / vbv_bufsize=62500 / crf_max=0.0 / nal_hrd=none / ip_ratio=1.40 / aq=1:0.90
Default : Да
Forced : Нет
Аудио
Идентификатор : 2
Формат : AC-3
Формат/Информация : Audio Coding 3
Расширение режима : CM (complete main)
Параметр Endianness формата : Big
Идентификатор кодека : A_AC3
Продолжительность : 2 ч. 10 м.
Вид битрейта : Постоянный
Битрейт : 640 Кбит/сек
Каналы : 6 каналов
Расположение каналов : Front: L C R, Side: L R, LFE
Частота : 48,0 КГц
Битовая глубина : 16 бит
Метод сжатия : С потерями
Размер потока : 596 Мбайт (6%)
Язык : Russian
Default : Да
Forced : Нет
Меню
00:00:00.000 : :01
00:16:15.474 : :02
00:32:07.634 : :03
00:44:54.650 : :04
01:07:12.195 : :05
01:20:37.791 : :06
01:37:30.803 : :07
01:52:43.131 : :08
--Релиз группы:

Проверено на встроенном плейере ТВ LG 42LW4500
--
Остальные раздачи этого фильма (2)
Благодарности релизеру (166)

Торрент:

Статус:

Размер:

Зарегистрирован   [ 2014-03-16 14:34 ]

проверено

10.43 GB