Торренты   
 
 

 

IMAX. Тайны подводного мира в 3Д / Deep Sea in 3D (Говард Холл) [2006 г., BDrip 1080p, OverUnder]

Рейтинг 3D:
6 голосов
9.3
Рейтинг фильма:
6 голосов
9.0
 
Вы должны быть авторизированы,
чтобы ставить оценки


IMAX. Тайны подводного мира в 3Д / Deep Sea in 3D
Год выпуска: 2006
Страна: США
Жанр: Видовой, документальный
Продолжительность: 00:40:49
Перевод: Профессиональный (полное дублирование)
Режиссер: Говард Холл
В ролях: Джонни Депп, Кейт Уинслет
Описание: Корпорация "IMAX" представляет фильм о тайнах морских глубин. Это один из самых красивых и эффектных фильмов "океанической серии", где вы познакомитесь с уникальнейшими обитателями подводного мира и узнаете о необычных порядках и законах, царящих на дне мирового океана.
Формат 3d: OverUnder
Качество: BDrip 1080p
Формат: MKV
Видео: MPEG4 Video (H264) 1920x2160 23.98fps 23.1 Mbps
Аудио 1: Русский Dolby AC3 48000Hz 6ch 448kbps
Аудио 2: Английский Dolby AC3 48000Hz 6ch 448kbps

Mediainfo

Format : Matroska
File size : 6.99 GiB
Duration : 40mn 49s
Overall bit rate : 24.5 Mbps
Encoded date : UTC 2010-09-06 07:28:19
Writing application : mkvmerge v2.9.7 ('Tenderness') built on Jul 1 2009 18:43:35
Writing library : libebml v0.7.7 + libmatroska v0.8.1
Video
ID : 1
Format : AVC
Format/Info : Advanced Video Codec
Format profile : High@L5.0
Format settings, CABAC : Yes
Format settings, ReFrames : 4 frames
Muxing mode : Container profile=Unknown@5.0
Codec ID : V_MPEG4/ISO/AVC
Duration : 40mn 49s
Bit rate : 23.1 Mbps
Width : 1 920 pixels
Height : 2 160 pixels
Display aspect ratio : 0.889
Frame rate : 23.976 fps
Color space : YUV
Chroma subsampling : 4:2:0
Bit depth : 8 bits
Scan type : Progressive
Bits/(Pixel*Frame) : 0.232
Stream size : 6.59 GiB (94%)
Writing library : x264 core 104 r1703 cd21d05
Encoding settings : cabac=1 / ref=4 / deblock=1:-1:-1 / analyse=0x3:0x113 / me=umh / subme=7 / psy=1 / psy_rd=1.00:0.15 / mixed_ref=1 / me_range=16 / chroma_me=1 / trellis=2 / 8x8dct=1 / cqm=0 / deadzone=21,11 / fast_pskip=1 / chroma_qp_offset=-3 / threads=6 / sliced_threads=0 / nr=0 / decimate=1 / interlaced=0 / constrained_intra=0 / bframes=6 / b_pyramid=0 / b_adapt=2 / b_bias=0 / direct=3 / weightb=1 / open_gop=0 / weightp=2 / keyint=250 / keyint_min=23 / scenecut=40 / intra_refresh=0 / rc_lookahead=40 / rc=crf / mbtree=1 / crf=18.0 / qcomp=0.60 / qpmin=10 / qpmax=51 / qpstep=4 / ip_ratio=1.40 / aq=1:1.00
Language : English
Audio #1
ID : 2
Format : AC-3
Format/Info : Audio Coding 3
Mode extension : CM (complete main)
Codec ID : A_AC3
Duration : 40mn 49s
Bit rate mode : Constant
Bit rate : 448 Kbps
Channel(s) : 6 channels
Channel positions : Front: L C R, Side: L R, LFE
Sampling rate : 48.0 KHz
Bit depth : 16 bits
Stream size : 131 MiB (2%)
Language : Russian
Audio #2
ID : 3
Format : AC-3
Format/Info : Audio Coding 3
Mode extension : CM (complete main)
Codec ID : A_AC3
Duration : 40mn 49s
Bit rate mode : Constant
Bit rate : 448 Kbps
Channel(s) : 6 channels
Channel positions : Front: L C R, Side: L R, LFE
Sampling rate : 48.0 KHz
Bit depth : 16 bits
Stream size : 131 MiB (2%)
Language : English

Скриншоты


Благодарности релизеру (20)

Торрент:

Статус:

Размер:

Зарегистрирован   [ 2010-09-07 14:09 ]

проверено

6.99 GB