Торренты   
 
 

 

Космический пират капитан Харлок в 3Д / Space Pirate Captain Harlock 3D (2013) [BDRip, 1080p] Anamorph SidebySide / Горизонтальная анаморфная стереопара

Рейтинг 3D:
16 голосов
7.9
Рейтинг фильма:
17 голосов
7.6
 
Вы должны быть авторизированы,
чтобы ставить оценки


Раздача закрыта по просьбе правообладателя (С)Космический пират капитан Харлок в 3Д
Space Pirate Captain Harlock 3D
キャプテンハーロック
Год выпуска: 2013
Жанр: мультфильм, приключения, фантастика, семейный
Страна: Япония
Продолжительность: 01:55:06
Перевод: Любительский многоголосый
Русские субтитры: есть
Производство/студия: Япония |Toei Animation Company
Автор оригинала: Мацумото Лэйдзи
Режиссер: Арамаки Синдзи
Дата мировой премьеры: 3 сентября 2013
Дата российской премьеры: 15 мая 2014

Описание: Далекое будущее. Преступная корпорация "Гала Санкция" стала злейшим врагом Земли, отобрав у людей все: свободу, дом, будущее… Казалось, что надежды на спасение нет… Но, появился Он — космический пират Харлок, капитан призрачного корабля Аркадия. Беглец, готовый сражаться за Землю. Кто Он, герой или преступник?
Формат 3D: Anamorph SidebySide / Горизонтальная анаморфная стереопара
Порядок ракурсов: левый ракурс первый
Качество: BDRip
Контейнер: MKV
Видео кодек: x264
Аудио кодек: DTS
Качество видео: BDRip
Видео: MPEG-4 AVC/X264, 1920x1080, 23.976 fps, 10.5Mbps
Аудио: Русский, AC3, 6 ch, 384 Кбит/с
Субтитры: Русские, английские

Важно!

Отсутствует около 2-3 мин озвучки, на эти минуты есть русские субтитры
Русские и английские субтитры обработаны под просмотр 3D

Знаете ли вы, что:

В основе анимационного фильма — культовые комиксы «Космический пират капитан Харлок», которые публиковались в журнале «Play Comic» (1977-1979).
«Космический пират Харлок в 3D» — самая технически сложная и совершенная анимационная версия приключений легендарного героя. Так, при создании персонажей использовалась технология захвата движения.
Комикс-франшиза «Космический пират Харлок» имеет фан-клубы по всему миру и входит в пятерку самых популярных комиксов всех времен наряду со «Звездными войнами» и «Стартреком».
Режиссер Джеймс Кэмерон после просмотра фильма так прокомментировал увиденное: «Масштабно, грандиозно и визуально беспрецедентно. «Харлок» опережает время, поражая воображение».
Картина получила награду базирующегося в США Международного общества 3D-технологий и передовых визуальных эффектов (The International 3D & Advanced Imaging Society) как лучший анимационный проект на международной арене.

Скриншоты


MediaInfo

Общее
Уникальный идентификатор : 179982169077713052693004227250255231390 (0x87674E0D2815476A99C8B986310AF99E)
Полное имя : D:\Download\Space Pirate Captain Harlock 3D 2013 BDRip 1080p halfSbS (IgorekSh) [ДОЛОЙ РЕКЛАМУ!].mkv
Формат : Matroska
Версия формата : Version 2
Размер файла : 7,56 Гбайт
Продолжительность : 1 ч. 55 м.
Общий поток : 9402 Кбит/сек
Название фильма : ДОЛОЙ РЕКЛАМУ!
Дата кодирования : UTC 2014-03-17 11:30:05
Программа кодирования : mkvmerge v4.0.0 ('The Stars were mine') сборка от Jun 6 2010 16:18:42
Библиотека кодирования : libebml v1.0.0 + libmatroska v1.0.0
Видео
Идентификатор : 1
Формат : AVC
Формат/Информация : Advanced Video Codec
Профиль формата : High@L4.1
Параметр CABAC формата : Да
Параметр ReFrames формата : 4 кадра
Идентификатор кодека : V_MPEG4/ISO/AVC
Продолжительность : 1 ч. 55 м.
Битрейт : 9000 Кбит/сек
Ширина : 1920 пикселей
Высота : 1080 пикселей
Соотношение сторон : 16:9
Режим частоты кадров : Постоянный
Частота кадров : 23,976 кадра/сек
Цветовое пространство : YUV
Субдискретизация насыщенности : 4:2:0
Битовая глубина : 8 бит
Тип развёртки : Прогрессивная
Бит/(Пиксели*Кадры) : 0.181
Размер потока : 7,10 Гбайт (94%)
Заголовок : IgorekSh [ДОЛОЙ РЕКЛАМУ!]
Библиотека кодирования : x264 core 129 r2230 1cffe9f
Настройки программы : cabac=1 / ref=4 / deblock=1:-1:-1 / analyse=0x3:0x133 / me=umh / subme=11 / psy=1 / psy_rd=0.60:0.00 / mixed_ref=1 / me_range=64 / chroma_me=1 / trellis=2 / 8x8dct=1 / cqm=0 / deadzone=21,11 / fast_pskip=0 / chroma_qp_offset=-2 / threads=12 / lookahead_threads=2 / sliced_threads=0 / nr=0 / decimate=1 / interlaced=0 / bluray_compat=0 / constrained_intra=0 / bframes=10 / b_pyramid=2 / b_adapt=2 / b_bias=0 / direct=3 / weightb=1 / open_gop=0 / weightp=2 / keyint=250 / keyint_min=23 / scenecut=40 / intra_refresh=0 / rc_lookahead=60 / rc=2pass / mbtree=0 / bitrate=9000 / ratetol=1.0 / qcomp=0.70 / qpmin=0 / qpmax=69 / qpstep=4 / cplxblur=20.0 / qblur=0.5 / vbv_maxrate=40000 / vbv_bufsize=30000 / nal_hrd=none / ip_ratio=1.40 / pb_ratio=1.30 / aq=1:0.80
Язык : English
Default : Нет
Forced : Нет
Аудио
Идентификатор : 2
Формат : AC-3
Формат/Информация : Audio Coding 3
Расширение режима : CM (complete main)
Параметр Endianness формата : Big
Идентификатор кодека : A_AC3
Продолжительность : 1 ч. 55 м.
Вид битрейта : Постоянный
Битрейт : 384 Кбит/сек
Каналы : 6 каналов
Расположение каналов : Front: L C R, Side: L R, LFE
Частота : 48,0 КГц
Битовая глубина : 16 бит
Метод сжатия : С потерями
Размер потока : 316 Мбайт (4%)
Заголовок : ДОЛОЙ РЕКЛАМУ!
Язык : Russian
Default : Нет
Forced : Нет
Текст #1
Идентификатор : 3
Формат : VobSub
Режим смешивания : zlib
Идентификатор кодека : S_VOBSUB
Идентификатор кодека/Информация : The same subtitle format used on DVDs
Заголовок : ДОЛОЙ РЕКЛАМУ!
Язык : Russian
Default : Нет
Forced : Нет
Текст #2
Идентификатор : 4
Формат : VobSub
Режим смешивания : zlib
Идентификатор кодека : S_VOBSUB
Идентификатор кодека/Информация : The same subtitle format used on DVDs
Заголовок : ДОЛОЙ РЕКЛАМУ!
Язык : English
Default : Нет
Forced : Нет
Благодарности релизеру (24)

Торрент:

Статус:

Размер:

Зарегистрирован   [ 2014-03-17 16:47 ]

© закрыто правообладателем

7.56 GB

 
 Мнение о фильме (4)





Мультфильм красивый, 3D хорошее ( но кому интересно, советую найти и посмотреть старый рисованный аниме, в котором совсем другая история, и сам капитан Харлок совершенно другой ). Звук хороший, перевод ужасный и записан ужасно. Поэтому непонятно, зачем было выкладывать ту же дорожку отдельно.
 

муть
 

Графика красивая за это плюс, но остальное полный бред особенно перевод!
 

на 1 раз пойдет!!