Торренты   
 
 

 

Xoлоднoе cepдце / Frоzеn (Крис Бак, Дженнифер Ли) [2013 г., Anamorph OverUnder]

Рейтинг 3D:
108 голосов
8.4
Рейтинг фильма:
108 голосов
8.4
 
Вы должны быть авторизированы,
чтобы ставить оценки



Холодное сердце / Frozen
Год выпуска: 2013
Страна: США (Walt Disney Pictures)
Жанр: мультфильм, мюзикл, фэнтези, комедия, мелодрама, приключения, семейный
Продолжительность: 01:42:13
Перевод: Профессиональный (полное дублирование)
Режиссер: Крис Бак, Дженнифер Ли
В ролях: Кристен Белл, Идина Мензел, Джонатан Грофф, Джош Гад, Сантино Фонтана, Алан Тьюдик, Киаран Хайндс, Крис Уильямс, Стивен Дж. Андерсон, Майа Уилсон
Описание: Когда древнее предсказание сбывается и королевство погружается в объятия вечной зимы, трое бесстрашных героев — принцесса Анна, отважный Кристофф и его верный олень Свен — отправляются в горы, чтобы найти сестру Анны, Эльзу, которая может снять со страны леденящее заклятие. По пути их ждет множество увлекательных сюрпризов и захватывающих приключений: встреча с мистическими троллями, знакомство с очаровательным снеговиком по имени Олаф, горные вершины покруче Эвереста и магия в каждой снежинке. Анне и Кристоффу предстоит сплотиться и противостоять могучей стихии, чтобы спасти королевство и тех, кто им дорог…
Качество: BDrip
Контейнер: MKV
Формат 3D: Anamorph OverUnder / Вертикальная анаморфная стереопара
Порядок ракурсов: левый ракурс первый
Видео кодек: x264
Аудио кодек: AC-3
Видео: AVC, High@L4.1, 1920х1080, 23,976 кадра/сек, 6119 Кбит/сек
Аудио:
#1 - Русский / AC3 / 48 KHz / 5.1 ch / 640 Kbps (Дубляж)
#2 - Английский / AC3 / 48 KHz / 5.1 ch / 640 Kbps (Original)
Субтитры: отсутствуют

Скриншоты

Media Info

Общее
Уникальный идентификатор : 207109550516453101933357092436901139852 (0x9BCFD9380155E7F5AA63B338D70C958C)
Полное имя : H:\Source\Frozen.3D.2013.BDrip.Half.OU.x264.AC3.(itsamna).mkv
Формат : Matroska
Версия формата : Version 4 / Version 2
Размер файла : 5,39 Гбайт
Продолжительность : 1 ч. 42 м.
Общий поток : 7546 Кбит/сек
Дата кодирования : UTC 2014-03-27 16:57:39
Программа кодирования : mkvmerge v6.8.0 ('Theme for Great Cities') 32bit built on Mar 2 2014 21:27:07
Библиотека кодирования : libebml v1.3.0 + libmatroska v1.4.1
Видео
Идентификатор : 1
Формат : AVC
Формат/Информация : Advanced Video Codec
Профиль формата : High@L4.1
Параметр CABAC формата : Да
Параметр ReFrames формата : 4 кадра
Идентификатор кодека : V_MPEG4/ISO/AVC
Продолжительность : 1 ч. 42 м.
Битрейт : 6115 Кбит/сек
Ширина : 1920 пикселей
Высота : 1080 пикселей
Соотношение сторон : 16:9
Режим частоты кадров : Постоянный
Частота кадров : 23,976 кадра/сек
Цветовое пространство : YUV
Субдискретизация насыщенности : 4:2:0
Битовая глубина : 8 бит
Тип развёртки : Прогрессивная
Бит/(Пиксели*Кадры) : 0.123
Размер потока : 4,37 Гбайт (81%)
Библиотека кодирования : x264 core 130 r2273 b3065e6
Настройки программы : cabac=1 / ref=4 / deblock=1:-3:-3 / analyse=0x3:0x133 / me=umh / subme=10 / psy=1 / psy_rd=1.00:0.15 / mixed_ref=1 / me_range=32 / chroma_me=1 / trellis=2 / 8x8dct=1 / cqm=0 / deadzone=21,11 / fast_pskip=0 / chroma_qp_offset=-3 / threads=12 / lookahead_threads=2 / sliced_threads=0 / nr=0 / decimate=1 / interlaced=0 / bluray_compat=0 / constrained_intra=0 / bframes=8 / b_pyramid=2 / b_adapt=2 / b_bias=0 / direct=3 / weightb=1 / open_gop=0 / weightp=2 / keyint=250 / keyint_min=23 / scenecut=40 / intra_refresh=0 / rc_lookahead=60 / rc=crf / mbtree=1 / crf=17.0 / qcomp=0.60 / qpmin=0 / qpmax=69 / qpstep=4 / vbv_maxrate=50000 / vbv_bufsize=62500 / crf_max=0.0 / nal_hrd=none / ip_ratio=1.40 / aq=1:0.90
Default : Да
Forced : Нет
Аудио #1
Идентификатор : 2
Формат : AC-3
Формат/Информация : Audio Coding 3
Расширение режима : CM (complete main)
Параметр Endianness формата : Big
Идентификатор кодека : A_AC3
Продолжительность : 1 ч. 42 м.
Вид битрейта : Постоянный
Битрейт : 640 Кбит/сек
Каналы : 6 каналов
Расположение каналов : Front: L C R, Side: L R, LFE
Частота : 48,0 КГц
Битовая глубина : 16 бит
Метод сжатия : С потерями
Размер потока : 468 Мбайт (8%)
Заголовок : Dub | DD 5.1 @ 640 kbps - BD CEE
Язык : Russian
Default : Да
Forced : Да
Аудио #2
Идентификатор : 3
Формат : AC-3
Формат/Информация : Audio Coding 3
Расширение режима : CM (complete main)
Параметр Endianness формата : Big
Идентификатор кодека : A_AC3
Продолжительность : 1 ч. 42 м.
Вид битрейта : Постоянный
Битрейт : 640 Кбит/сек
Каналы : 6 каналов
Расположение каналов : Front: L C R, Side: L R, LFE
Частота : 48,0 КГц
Битовая глубина : 16 бит
Метод сжатия : С потерями
Размер потока : 468 Мбайт (8%)
Язык : English
Default : Нет
Forced : Нет
Текст #1
Идентификатор : 4
Формат : UTF-8
Идентификатор кодека : S_TEXT/UTF8
Идентификатор кодека/Информация : UTF-8 Plain Text
Заголовок : BD
Язык : Russian
Default : Нет
Forced : Нет
Текст #2
Идентификатор : 5
Формат : UTF-8
Идентификатор кодека : S_TEXT/UTF8
Идентификатор кодека/Информация : UTF-8 Plain Text
Заголовок : Notabenoid
Язык : Russian
Default : Нет
Forced : Нет
Текст #3
Идентификатор : 6
Формат : UTF-8
Идентификатор кодека : S_TEXT/UTF8
Идентификатор кодека/Информация : UTF-8 Plain Text
Заголовок : Sancta11
Язык : Russian
Default : Нет
Forced : Нет
Текст #4
Идентификатор : 7
Формат : UTF-8
Идентификатор кодека : S_TEXT/UTF8
Идентификатор кодека/Информация : UTF-8 Plain Text
Заголовок : SDH
Язык : English
Default : Нет
Forced : Нет
Текст #5
Идентификатор : 8
Формат : UTF-8
Идентификатор кодека : S_TEXT/UTF8
Идентификатор кодека/Информация : UTF-8 Plain Text
Заголовок : SDH-Colored
Язык : English
Default : Нет
Forced : Нет
Меню
00:00:00.000 : en:00:00:00.000
00:05:59.818 : en:00:05:59.818
00:11:37.947 : en:00:11:37.947
00:19:53.734 : en:00:19:53.734
00:31:03.195 : en:00:31:03.195
00:38:39.484 : en:00:38:39.484
00:44:21.284 : en:00:44:21.284
00:50:51.507 : en:00:50:51.507
00:57:48.381 : en:00:57:48.381
01:02:57.399 : en:01:02:57.399
01:09:36.047 : en:01:09:36.047
01:13:34.869 : en:01:13:34.869
01:18:07.599 : en:01:18:07.599
01:22:33.740 : en:01:22:33.740
01:27:10.809 : en:01:27:10.809
01:32:33.506 : en:01:32:33.506
27.03.2014. Релиз обновлён - русская дорога заменена на лицензию, добавлен пакет субтитров.
Желающие, скачайте заново торрент-файл.
Остальные раздачи этого фильма (4)
Благодарности релизеру (28)

Торрент:

Статус:

Размер:

Зарегистрирован   [ 2014-03-28 08:08 ]

проверено

5.39 GB

 
 Мнение о фильме (42)

1, 2, 3  След.






Нудные песни. На середине выключили. Хотя люблю мульты, но это - нудно...мюзикл всё испортил.
 

Отличный мульт Советую посмотреть всем!
 

Спасибо! Красивый мульт
 

спасибо!мультик отличный!
 

Мультфильм отличный.Спасибо.
 

Если можно ссылочку на лицензионный звук
 

Спасибо! Мультик отличный. Дети рады.
 

uerbujhm,
Если можно ссылочку на лицензионный звук
http://yadi.sk/d/d0BpDuXALNhRN
(Дубляж - BD 3D CEE)
 

Мультик хороший.Спасибо за Crop без полос и за Дубляж - BD 3D CEE.
 

Я извиняюсь может у кого есть украинский дубляж,если можно скиньте ссылочку
за ранее спасибо
 

мульт отличный качество 3д на высоте и сюжет интересный спасибо
 

Ничего так, на разок посмотреть можно.
Много поют, поржать особо не над чем.
 

Вполне добрый мульт.
Голос певицы озвучивающий песни ст. сестры лично мне не понравился и не подходит персонажу. Если бы не он то замечаний вообще не было бы (но это минус скорее дубляжа а не мульта).
В остальном - отличная добрая история, красивая графика - нет особого ощущения плассмассовости лиц и фигур.
А снеговик заставил реально посмеяться.
 

мультик исключительно для детей!!!Я никогда не засыпал при просмотре кино/ мультика !но это снотворное меня усыпило!!! Самый худший за последние 20 лет!!!
 

Согласен с разочарованными зрителями. Это не мультик, а мюзикл. Причем скучный до безобразия. Первый 3D-мульт, который выключил на середине, так и не дождавшись чего-либо интересного или смешного.
 

Те кто хвалят этот мульт наверное не видели другие мультики Диснея. У меня была коллекция всех их мультов. Когда дочка была маленькая смотрел с ней по десять раз "Тарзан" "Мулан" да и из последних "Рапунцель" можно много раз посмотреть, Но я никогда не выключал мультики
на середине. Когда будете смотреть не стесняйтесь - выключайте на середине. На всякий случай скачал с одноголосым переводом , может вина дубляжа. Попробую посмотреть с "Живовым".
 

На всякий случай скачал с одноголосым переводом , может вина дубляжа.
Именно так. С оригинальной звуковой дорожкой фильм на мой взгляд воспринимается в разы лучше. В русском дубляже что-то уж очень схалтурили. Только пересмотрев фильм в оригинале, я наконец смог понять за что же ему дали эти два Оскара. :) English там кстати очень простой и понятный, не требующий шибко большого словарного запаса. Я бы даже сказал по некоторым фразам, что он ближе не к литературному, а к "техническому" :-)
 

Хороший мульт , понравился
 

Давно искал, хороший фильм !!!
 
Евгений110852 Профиль 12-Май-2014 09:52

мульт хороший и 3 д тоже! Легкий и веселый такой!)
 

Страница 1 из 3

1, 2, 3  След.