Торренты   
 
 

 

Гравитация в 3Д / Gravity 3D (2013) [BDRip, 1080p] Anamorph SideBySide / Горизонтальная анаморфная стереопара

Рейтинг 3D:
349 голосов
7.8
Рейтинг фильма:
347 голосов
7.6
 
Вы должны быть авторизированы,
чтобы ставить оценки


Гравитация в 3Д / Gravity 3D
«Не отпускай»
Год выпуска: 2013
Жанр: фантастика, триллер, драма
Страна: США
Продолжительность: 01:30:58
Перевод: Профессиональный (дублированный)
Русские субтитры: есть
Производство: Heyday Films, Reality Media, Warner Bros. Pictures
Режиссер: Альфонсо Куарон / Alfonso Cuaron
В ролях: Сандра Буллок, Джордж Клуни, Эд Харрис, Орто Игнатиуссен, Фалдут Шарма, Эми Уоррен, Башер Саваж, Дженис Ахерн...
Роли дублировали: Мария Фортунатова, Дмитрий Матвеев, Сергей Чихачев, Диомид Виноградов...
Описание: Доктор Райан Стоун, блестящий специалист в области медицинского инжиниринга, отправляется в свою первую космическую миссию под командованием ветерана астронавтики Мэтта Ковальски, для которого этот полет — последний перед отставкой. Но во время, казалось бы, рутинной работы за бортом случается катастрофа.
Шаттл уничтожен, а Стоун и Ковальски остаются совершенно одни; они находятся в связке друг с другом, и все, что они могут, — это двигаться по орбите в абсолютно черном пространстве без всякой связи с Землей и какой-либо надежды на спасение…

Формат 3D: Anamorph SideBySide / Горизонтальная анаморфная стереопара
Порядок ракурсов: левый ракурс первый
Качество: BDRip
Контейнер: MKV
Видео кодек: x264
Аудио кодек: AC3
Видео: MPEG-4 AVC, 7821 Кбит/с, 1920х1080, 24 кадр/с
Аудио 1Русский / AC3 / 48 KHz / 5.1 ch / 448 Kbps (Дубляж - BD 3D CEE)
Аудио 2Украинский / AC3 / 48 KHz / 5.1 ch / 448 Kbps (Дубляж - BD 3D CEE)
Субтитры: Russian (Forced, iTunes), Russian (iTunes), Ukrainian (iTunes), English, English (SDH), English (SDH-COLORED)

Скриншоты


MediaInfo

Общее
Уникальный идентификатор : 216366338913161747752580768542403708268 (0xA2C6A41F971D1F68A5EEC5C40651C56C)
Полное имя : D:\Download\Gravity 3D 2013 BDRip 1080p halfSbS (IgorekSh) [ДОЛОЙ РЕКЛАМУ!].mkv
Формат : Matroska
Версия формата : Version 2
Размер файла : 10,3 Гбайт
Продолжительность : 1 ч. 30 м.
Общий поток : 16,2 Мбит/сек
Название фильма : Gravity (2013) [3D] - Release for HDCLUB
Дата кодирования : UTC 2014-03-17 17:22:10
Программа кодирования : mkvmerge v4.0.0 ('The Stars were mine') сборка от Jun 6 2010 16:18:42
Библиотека кодирования : libebml v1.0.0 + libmatroska v1.0.0
Видео
Идентификатор : 1
Формат : AVC
Формат/Информация : Advanced Video Codec
Профиль формата : High@L4.1
MultiView_Count : 2
MultiView_Layout : Right Eye
Параметр CABAC формата : Да
Параметр ReFrames формата : 4 кадра
Идентификатор кодека : V_MPEG4/ISO/AVC
Продолжительность : 1 ч. 30 м.
Битрейт : 15,0 Мбит/сек
Ширина : 1920 пикселей
Высота : 1080 пикселей
Соотношение сторон : 16:9
Режим частоты кадров : Постоянный
Частота кадров : 23,976 кадра/сек
Цветовое пространство : YUV
Субдискретизация насыщенности : 4:2:0
Битовая глубина : 8 бит
Тип развёртки : Прогрессивная
Бит/(Пиксели*Кадры) : 0.301
Размер потока : 9,51 Гбайт (92%)
Заголовок : IgorekSh [ДОЛОЙ РЕКЛАМУ!]
Библиотека кодирования : x264 core 142 r2389kMod 956c8d8
Настройки программы : cabac=1 / ref=4 / deblock=1:-3:-3 / analyse=0x3:0x133 / me=umh / subme=9 / psy=1 / fade_compensate=0.00 / psy_rd=1.00:0.00 / mixed_ref=1 / me_range=48 / chroma_me=1 / trellis=2 / 8x8dct=1 / cqm=0 / deadzone=21,11 / fast_pskip=0 / chroma_qp_offset=-2 / threads=36 / lookahead_threads=6 / sliced_threads=0 / nr=0 / decimate=0 / interlaced=0 / bluray_compat=0 / constrained_intra=0 / fgo=0 / bframes=8 / b_pyramid=2 / b_adapt=2 / b_bias=0 / direct=3 / weightb=1 / open_gop=0 / weightp=2 / keyint=250 / keyint_min=23 / scenecut=40 / intra_refresh=0 / rc=crf / mbtree=0 / crf=17.5000 / qcomp=0.65 / qpmin=0 / qpmax=69 / qpstep=4 / frame-packing=3 / ip_ratio=1.40 / pb_ratio=1.20 / aq=2:0.80
Язык : English
Default : Нет
Forced : Нет
Аудио #1
Идентификатор : 2
Формат : AC-3
Формат/Информация : Audio Coding 3
Расширение режима : CM (complete main)
Параметр Endianness формата : Big
Идентификатор кодека : A_AC3
Продолжительность : 1 ч. 30 м.
Вид битрейта : Постоянный
Битрейт : 448 Кбит/сек
Каналы : 6 каналов
Расположение каналов : Front: L C R, Side: L R, LFE
Частота : 48,0 КГц
Битовая глубина : 16 бит
Метод сжатия : С потерями
Размер потока : 292 Мбайт (3%)
Заголовок : ДОЛОЙ РЕКЛАМУ!
Язык : Russian
Default : Да
Forced : Нет
Аудио #2
Идентификатор : 3
Формат : AC-3
Формат/Информация : Audio Coding 3
Расширение режима : CM (complete main)
Параметр Endianness формата : Big
Идентификатор кодека : A_AC3
Продолжительность : 1 ч. 30 м.
Вид битрейта : Постоянный
Битрейт : 448 Кбит/сек
Каналы : 6 каналов
Расположение каналов : Front: L C R, Side: L R, LFE
Частота : 48,0 КГц
Битовая глубина : 16 бит
Метод сжатия : С потерями
Размер потока : 292 Мбайт (3%)
Заголовок : ДОЛОЙ РЕКЛАМУ!
Язык : Ukrainian
Default : Нет
Forced : Нет
Текст #1
Идентификатор : 4
Формат : UTF-8
Идентификатор кодека : S_TEXT/UTF8
Идентификатор кодека/Информация : UTF-8 Plain Text
Заголовок : Forced, iTunes [ДОЛОЙ РЕКЛАМУ!]
Язык : Russian
Default : Да
Forced : Нет
Текст #2
Идентификатор : 5
Формат : UTF-8
Идентификатор кодека : S_TEXT/UTF8
Идентификатор кодека/Информация : UTF-8 Plain Text
Заголовок : iTunes [ДОЛОЙ РЕКЛАМУ!]
Язык : Russian
Default : Нет
Forced : Нет
Текст #3
Идентификатор : 6
Формат : UTF-8
Идентификатор кодека : S_TEXT/UTF8
Идентификатор кодека/Информация : UTF-8 Plain Text
Заголовок : iTunes [ДОЛОЙ РЕКЛАМУ!]
Язык : Ukrainian
Default : Нет
Forced : Нет
Текст #4
Идентификатор : 7
Формат : UTF-8
Идентификатор кодека : S_TEXT/UTF8
Идентификатор кодека/Информация : UTF-8 Plain Text
Заголовок : ДОЛОЙ РЕКЛАМУ!
Язык : English
Default : Нет
Forced : Нет
Текст #5
Идентификатор : 8
Формат : UTF-8
Идентификатор кодека : S_TEXT/UTF8
Идентификатор кодека/Информация : UTF-8 Plain Text
Заголовок : SDH [ДОЛОЙ РЕКЛАМУ!]
Язык : English
Default : Нет
Forced : Нет
Текст #6
Идентификатор : 9
Формат : UTF-8
Идентификатор кодека : S_TEXT/UTF8
Идентификатор кодека/Информация : UTF-8 Plain Text
Заголовок : SDH-COLORED [ДОЛОЙ РЕКЛАМУ!]
Язык : English
Default : Нет
Forced : Нет
Меню
00:00:00.000 : en:00:00:00.000
00:13:08.830 : en:00:13:08.830
00:21:33.542 : en:00:21:33.542
00:29:12.668 : en:00:29:12.668
00:39:59.856 : en:00:39:59.856
00:48:49.051 : en:00:48:49.051
00:57:00.667 : en:00:57:00.667
01:08:08.418 : en:01:08:08.418
01:15:27.148 : en:01:15:27.148
01:23:50.567 : en:01:23:50.567
Остальные раздачи этого фильма (4)
Благодарности релизеру (22)

Торрент:

Статус:

Размер:

Зарегистрирован   [ 2014-03-18 12:39 ]

проверено

10.29 GB

 
 Мнение о фильме (154)

1, 2, 3, 4, 5, 6, 7, 8  След.






Спасибо за фильм! Смотрел экранку - очень впечатлило, а в тридэ и подавно!
 

Хороший фильм, 3D тоже. Без 3D его вобще нет смысла смотреть, впечатления совсем ни те будут.
 

Спасибо большое!
 

Отличный фильм , 3д здесь необходимо ,специально ждали релиз без полос . Огромное спасибо ! Есть нестыковки в плане физики , но на них как-то не обращаешь внимание .
 
евгения мурашко Профиль 10-Фев-2014 12:42

Спасибо большое!
 

3D отлично звук 5.1 отлично
 

 

Посмотрел , фильм просто нереально классный . 3д супер , как будто сам в космосе . 10+
 

дождались,спасибо!Кто смотрел отпишитесь как звук?или всё таки лучше подождать полноценный 5.1
 

и ребят отпишитесь что за звук Itunes???
заранее спасибо.
 

koss^24
BDRip это рип с блю-рей диска, а дополнительная "приставка" к нему относится к звуку.
iTunes - звук с лицензионного диска, полученный путём записи пользователем с платной онлайн трансляции фильма в сети (магазин itunes store)
Лицензия (иногда CEE)- соответственно звук пережатый или перекинутый в рип без пережатия с реального лицензионного диска.
И просто БДРип- возможны варианты звука, тут нужно смотреть описание раздачи, что там сказано о звуковых дорожках.
 

killer29 спасибо за ответ.теперь всё ясно,вопрос то был по сути только с дорожкой,тем не менее спасибо а ответ.
Значит качаем)
 

Фильм сильный, красивый, многогранный. Три-Дэ правильное, но почему-то меньшее, чем было в трейлере.
 

3D хорошее космос впечатляет, сам фильм посмотреть на 1 раз)))
 

normal
[img][/img]
 

3D очень слабое-почему???
 

В основном плоская картинка...
 

Тот же вопрос - скачал релиз с полосами, 3Д почти не ощущается - качество 3-копеечной конвертации. Кто смотрел в кино, отзовитесь - как там было с 3Д?
 
Полиграфович Профиль 10-Фев-2014 19:18

в чем разница 8.26 и 9.08 ?
 

nurja, там ФАБ-рип.
 

Страница 1 из 8

1, 2, 3, 4, 5, 6, 7, 8  След.