Торренты   
 
 

 

Xoлoднoe cepдцe в 3Д / Frоzеn 3D (Кpиc Бaк, Дженнифер / Сhris Вuсk, Jеnnifer) [2013, Мультфильм, Мюзикл, Фэнтези, Комедия, Мелодрама, BDrip, 1080p]Full OverUnder / Вертикальная стереопара

Рейтинг 3D:
108 голосов
8.4
Рейтинг фильма:
108 голосов
8.4
 
Вы должны быть авторизированы,
чтобы ставить оценки


Холодное сердце / Frozen
Год выпуска: 2013
Страна: США
Студия: Walt Disney
Жанр: Мультфильм, Мюзикл, Фэнтези, Комедия, Мелодрама, Приключения, Семейный
Продолжительность: 1:42:13
Перевод: Профессиональный дублированный(Лицензия)
Русские субтитры: нет
Режиссер на русском: Крис Бак, Дженнифер Ли
Режиссер на английском: Chris Buck, Jennifer Lee
В ролях: Кристен Белл, Идина Мензел, Джонатан Грофф, Джош Гад, Сантино Фонтана, Алан Тьюдик, Киаран Хайндс, Крис Уильямс, Стивен Дж. Андерсон ,Майа Уилсон
Описание: Когда древнее предсказание сбывается и королевство погружается в объятия вечной зимы, трое бесстрашных героев — принцесса Анна, отважный Кристофф и его верный олень Свен — отправляются в горы, чтобы найти сестру Анны, Эльзу, которая может снять со страны леденящее заклятие. По пути их ждет множество увлекательных сюрпризов и захватывающих приключений: встреча с мистическими троллями, знакомство с очаровательным снеговиком по имени Олаф, горные вершины покруче Эвереста и магия в каждой снежинке. Анне и Кристоффу предстоит сплотиться и противостоять могучей стихии, чтобы спасти королевство и тех, кто им дорог…
Сэмпл: http://www.sendspace.com/file/dkgd1i
Качество: BDrip
Контейнер: MKV
Формат 3D: OverUnder / Вертикальная стереопара
Порядок ракурсов: левый ракурс первый
Видео кодек: x264
Аудио кодек: AC3
Видео: AVC / High@L5.0 / 23,976 fps / 1920х1600 / 10,1 Мбит/сек
Аудио: Русский / AC3 / 48 KHz / 5.1 ch / 640 Кбит/сек(Лицензия)
Аудио 2: Английский / AC3 / 48 KHz / 5.1 ch / 640 Kbps
Релиз группы: ВНИМАНИЕ ! На встроенных ТВ-плееерах работать не будет!!!
Железные плееры на которых воспроизводятся полные стереопары:Popcorn C-200 , Dune HD Smart D1 , Dune HD DUO , Dune HD Smart H1 , Dune HD Smart B1 , Dune HD Max , Dune HD TV-303D , Dune HD Base 3D

01.04.2014 Релиз обновлен - русская звуковая дорожка "iTunes" заменена на лицензию. Желающие скачайте заново торрент-файл

MediaInfo

Общее
Уникальный идентификатор : 235806472905661172009365575809210510163 (0xB166ACBAC5F9BB61994CBC78497BEB53)
Полное имя : E:\закачки\Frozen.Rip by SeRoGa00.mkv
Формат : Matroska
Версия формата : Version 2
Размер файла : 8,28 Гбайт
Продолжительность : 1 ч. 42 м.
Общий поток : 11,6 Мбит/сек
Дата кодирования : UTC 2014-04-01 08:53:26
Программа кодирования : mkvmerge v3.4.0 ('Rapunzel') сборка от May 15 2010 09:38:20
Библиотека кодирования : libebml v0.8.0 + libmatroska v0.9.0
Видео
Идентификатор : 1
Формат : AVC
Формат/Информация : Advanced Video Codec
Профиль формата : High@L5.0
Параметр CABAC формата : Да
Параметр ReFrames формата : 4 кадра
Идентификатор кодека : V_MPEG4/ISO/AVC
Продолжительность : 1 ч. 42 м.
Битрейт : 10,1 Мбит/сек
Ширина : 1920 пикселей
Высота : 1600 пикселей
Соотношение сторон : 1,200
Частота кадров : 23,976 кадра/сек
Цветовое пространство : YUV
Субдискретизация насыщенности : 4:2:0
Битовая глубина : 8 бит
Тип развёртки : Прогрессивная
Бит/(Пиксели*Кадры) : 0.137
Размер потока : 7,21 Гбайт (87%)
Заголовок : Rip by SeRoGa00
Библиотека кодирования : x264 core 138 r2356 a1d3d17
Настройки программы : cabac=1 / ref=4 / deblock=1:-3:-3 / analyse=0x3:0x113 / me=umh / subme=9 / psy=1 / psy_rd=1.00:0.15 / mixed_ref=1 / me_range=24 / chroma_me=1 / trellis=2 / 8x8dct=1 / cqm=0 / deadzone=21,11 / fast_pskip=1 / chroma_qp_offset=-3 / threads=9 / lookahead_threads=1 / sliced_threads=0 / nr=0 / decimate=1 / interlaced=0 / bluray_compat=0 / constrained_intra=0 / bframes=8 / b_pyramid=2 / b_adapt=2 / b_bias=0 / direct=3 / weightb=1 / open_gop=0 / weightp=2 / keyint=250 / keyint_min=23 / scenecut=40 / intra_refresh=0 / rc_lookahead=60 / rc=crf / mbtree=1 / crf=18.0 / qcomp=0.60 / qpmin=10 / qpmax=69 / qpstep=4 / vbv_maxrate=40000 / vbv_bufsize=40000 / crf_max=0.0 / nal_hrd=none / ip_ratio=1.40 / aq=1:1.00
Язык : English
Аудио #1
Идентификатор : 2
Формат : AC-3
Формат/Информация : Audio Coding 3
Расширение режима : CM (complete main)
Идентификатор кодека : A_AC3
Продолжительность : 1 ч. 42 м.
Вид битрейта : Постоянный
Битрейт : 640 Кбит/сек
Каналы : 6 каналов
Расположение каналов : Front: L C R, Side: L R, LFE
Частота : 48,0 КГц
Битовая глубина : 16 бит
Метод сжатия : С потерями
Размер потока : 468 Мбайт (6%)
Язык : Russian
Аудио #2
Идентификатор : 3
Формат : AC-3
Формат/Информация : Audio Coding 3
Расширение режима : CM (complete main)
Идентификатор кодека : A_AC3
Продолжительность : 1 ч. 42 м.
Вид битрейта : Постоянный
Битрейт : 640 Кбит/сек
Каналы : 6 каналов
Расположение каналов : Front: L C R, Side: L R, LFE
Частота : 48,0 КГц
Битовая глубина : 16 бит
Метод сжатия : С потерями
Размер потока : 468 Мбайт (6%)
Язык : English

Скриншоты


Остальные раздачи этого фильма (4)
Благодарности релизеру (10)

Торрент:

Статус:

Размер:

Зарегистрирован   [ 2014-04-01 16:48 ]

проверено

8.28 GB

 
 Мнение о фильме (42)

1, 2, 3  След.






Нудные песни. На середине выключили. Хотя люблю мульты, но это - нудно...мюзикл всё испортил.
 

Отличный мульт Советую посмотреть всем!
 

Спасибо! Красивый мульт
 

спасибо!мультик отличный!
 

Мультфильм отличный.Спасибо.
 

Если можно ссылочку на лицензионный звук
 

Спасибо! Мультик отличный. Дети рады.
 

uerbujhm,
Если можно ссылочку на лицензионный звук
http://yadi.sk/d/d0BpDuXALNhRN
(Дубляж - BD 3D CEE)
 

Мультик хороший.Спасибо за Crop без полос и за Дубляж - BD 3D CEE.
 

Я извиняюсь может у кого есть украинский дубляж,если можно скиньте ссылочку
за ранее спасибо
 

мульт отличный качество 3д на высоте и сюжет интересный спасибо
 

Ничего так, на разок посмотреть можно.
Много поют, поржать особо не над чем.
 

Вполне добрый мульт.
Голос певицы озвучивающий песни ст. сестры лично мне не понравился и не подходит персонажу. Если бы не он то замечаний вообще не было бы (но это минус скорее дубляжа а не мульта).
В остальном - отличная добрая история, красивая графика - нет особого ощущения плассмассовости лиц и фигур.
А снеговик заставил реально посмеяться.
 

мультик исключительно для детей!!!Я никогда не засыпал при просмотре кино/ мультика !но это снотворное меня усыпило!!! Самый худший за последние 20 лет!!!
 

Согласен с разочарованными зрителями. Это не мультик, а мюзикл. Причем скучный до безобразия. Первый 3D-мульт, который выключил на середине, так и не дождавшись чего-либо интересного или смешного.
 

Те кто хвалят этот мульт наверное не видели другие мультики Диснея. У меня была коллекция всех их мультов. Когда дочка была маленькая смотрел с ней по десять раз "Тарзан" "Мулан" да и из последних "Рапунцель" можно много раз посмотреть, Но я никогда не выключал мультики
на середине. Когда будете смотреть не стесняйтесь - выключайте на середине. На всякий случай скачал с одноголосым переводом , может вина дубляжа. Попробую посмотреть с "Живовым".
 

На всякий случай скачал с одноголосым переводом , может вина дубляжа.
Именно так. С оригинальной звуковой дорожкой фильм на мой взгляд воспринимается в разы лучше. В русском дубляже что-то уж очень схалтурили. Только пересмотрев фильм в оригинале, я наконец смог понять за что же ему дали эти два Оскара. :) English там кстати очень простой и понятный, не требующий шибко большого словарного запаса. Я бы даже сказал по некоторым фразам, что он ближе не к литературному, а к "техническому" :-)
 

Хороший мульт , понравился
 

Давно искал, хороший фильм !!!
 
Евгений110852 Профиль 12-Май-2014 09:52

мульт хороший и 3 д тоже! Легкий и веселый такой!)
 

Страница 1 из 3

1, 2, 3  След.