Торренты   
 
 


47 ронинов / 47 Ronin (Карл Ринш) [2013 г., Anamorph OverUnder]

Рейтинг 3D:
111 голосов
6.6
Рейтинг фильма:
114 голосов
7.3
 
Вы должны быть авторизированы,
чтобы ставить оценки



47 ронинов / 47 Ronin
Год выпуска: 2013
Страна: США
Жанр: фэнтези, боевик, приключения
Продолжительность: 01:58:43
Перевод: Профессиональный (полное дублирование) |СЕЕ|
Режиссер: Карл Ринш
В ролях: Киану Ривз, Хироюки Санада, Ко Шибасаки, Таданобу Асано, Мин Танака, Джин Аканиши, Масаёси Ханеда, Хироси Согабэ, Такато Йонемото, Хироси Ямада
Описание: Таинственный странник, преданный всеми, проданный в рабство, избранный судьбой вершить месть, станет одним из 47 воинов, бросивших вызов смерти. Явившись из другого мира, он восстанет против темных сил, чтобы защитить свою запретную любовь.
Качество: BDrip
Контейнер: MKV
Формат 3D: Anamorph OverUnder / Вертикальная анаморфная стереопара
Порядок ракурсов: левый ракурс первый
Видео кодек: x264
Аудио кодек: AC-3
Видео: AVC, High@L4.1, 1920х1080, 23,976 кадра/сек, 8114 Кбит/сек
Аудио:
48 kHz, AC3 Dolby Digital, 5/1 ch, ~640.00 kbps avg |Russian|
48 kHz, AC3 Dolby Digital, 5/1 ch, ~640.00 kbps avg |English|
Cубтитры: Русские (полные + форс.), английские (SDH + SDH-Colored)

Скриншоты

Media Info

Общее
Уникальный идентификатор : 204423503486106917664141490515312173015 (0x99CA88E022D1E891AD2FF82F38C4DFD7)
Полное имя : H:\Source\47Ronin.3D.2013.BDrip.Half.OU.x264.AC3.(itsamna).mkv
Формат : Matroska
Версия формата : Version 4 / Version 2
Размер файла : 7,94 Гбайт
Продолжительность : 1 ч. 58 м.
Общий поток : 9576 Кбит/сек
Название фильма : 47 Ronin
Дата кодирования : UTC 2014-04-23 19:59:15
Программа кодирования : mkvmerge v6.8.0 ('Theme for Great Cities') 32bit built on Mar 2 2014 21:27:07
Библиотека кодирования : libebml v1.3.0 + libmatroska v1.4.1
Видео
Идентификатор : 1
Формат : AVC
Формат/Информация : Advanced Video Codec
Профиль формата : High@L4.1
Параметр CABAC формата : Да
Параметр ReFrames формата : 4 кадра
Идентификатор кодека : V_MPEG4/ISO/AVC
Продолжительность : 1 ч. 58 м.
Битрейт : 8106 Кбит/сек
Ширина : 1920 пикселей
Высота : 1080 пикселей
Соотношение сторон : 16:9
Режим частоты кадров : Постоянный
Частота кадров : 23,976 кадра/сек
Цветовое пространство : YUV
Субдискретизация насыщенности : 4:2:0
Битовая глубина : 8 бит
Тип развёртки : Прогрессивная
Бит/(Пиксели*Кадры) : 0.163
Размер потока : 6,72 Гбайт (85%)
Библиотека кодирования : x264 core 130 r2273 b3065e6
Настройки программы : cabac=1 / ref=4 / deblock=1:-3:-3 / analyse=0x3:0x133 / me=umh / subme=10 / psy=1 / psy_rd=1.00:0.15 / mixed_ref=1 / me_range=32 / chroma_me=1 / trellis=2 / 8x8dct=1 / cqm=0 / deadzone=21,11 / fast_pskip=0 / chroma_qp_offset=-3 / threads=12 / lookahead_threads=2 / sliced_threads=0 / nr=0 / decimate=1 / interlaced=0 / bluray_compat=0 / constrained_intra=0 / bframes=8 / b_pyramid=2 / b_adapt=2 / b_bias=0 / direct=3 / weightb=1 / open_gop=0 / weightp=2 / keyint=250 / keyint_min=23 / scenecut=40 / intra_refresh=0 / rc_lookahead=60 / rc=crf / mbtree=1 / crf=17.0 / qcomp=0.60 / qpmin=0 / qpmax=69 / qpstep=4 / vbv_maxrate=50000 / vbv_bufsize=62500 / crf_max=0.0 / nal_hrd=none / ip_ratio=1.40 / aq=1:0.90
Default : Да
Forced : Нет
Аудио #1
Идентификатор : 2
Формат : AC-3
Формат/Информация : Audio Coding 3
Расширение режима : CM (complete main)
Параметр Endianness формата : Big
Идентификатор кодека : A_AC3
Продолжительность : 1 ч. 58 м.
Вид битрейта : Постоянный
Битрейт : 640 Кбит/сек
Каналы : 6 каналов
Расположение каналов : Front: L C R, Side: L R, LFE
Частота : 48,0 КГц
Битовая глубина : 16 бит
Метод сжатия : С потерями
Размер потока : 543 Мбайт (7%)
Язык : Russian
Default : Да
Forced : Нет
Аудио #2
Идентификатор : 3
Формат : AC-3
Формат/Информация : Audio Coding 3
Расширение режима : CM (complete main)
Параметр Endianness формата : Big
Идентификатор кодека : A_AC3
Продолжительность : 1 ч. 58 м.
Вид битрейта : Постоянный
Битрейт : 640 Кбит/сек
Каналы : 6 каналов
Расположение каналов : Front: L C R, Side: L R, LFE
Частота : 48,0 КГц
Битовая глубина : 16 бит
Метод сжатия : С потерями
Размер потока : 543 Мбайт (7%)
Язык : English
Default : Нет
Forced : Нет
Текст #1
Идентификатор : 4
Формат : UTF-8
Идентификатор кодека : S_TEXT/UTF8
Идентификатор кодека/Информация : UTF-8 Plain Text
Заголовок : форс.
Язык : Russian
Default : Да
Forced : Нет
Текст #2
Идентификатор : 5
Формат : UTF-8
Идентификатор кодека : S_TEXT/UTF8
Идентификатор кодека/Информация : UTF-8 Plain Text
Язык : Russian
Default : Нет
Forced : Нет
Текст #3
Идентификатор : 6
Формат : UTF-8
Идентификатор кодека : S_TEXT/UTF8
Идентификатор кодека/Информация : UTF-8 Plain Text
Заголовок : SDH
Язык : English
Default : Нет
Forced : Нет
Текст #4
Идентификатор : 7
Формат : UTF-8
Идентификатор кодека : S_TEXT/UTF8
Идентификатор кодека/Информация : UTF-8 Plain Text
Заголовок : SDH-Colored
Язык : English
Default : Нет
Forced : Нет
Меню
00:04:27.558 : en:(01)00:04:27:558
00:11:12.088 : en:(02)00:11:12:088
00:16:27.820 : en:(03)00:16:27:820
00:20:11.835 : en:(04)00:20:11:835
00:26:52.319 : en:(05)00:26:52:319
00:31:02.944 : en:(06)00:31:02:944
00:36:10.626 : en:(07)00:36:10:626
00:43:36.614 : en:(08)00:43:36:614
00:50:14.511 : en:(09)00:50:14:511
00:54:59.421 : en:(10)00:54:59:421
00:59:54.048 : en:(11)00:59:54:048
01:09:57.735 : en:(12)01:09:57:735
01:13:59.017 : en:(13)01:13:59:017
01:19:12.247 : en:(14)01:19:12:247
01:24:17.385 : en:(15)01:24:17:385
01:33:00.825 : en:(16)01:33:00:825
01:38:55.554 : en:(17)01:38:55:554
01:44:41.608 : en:(18)01:44:41:608
01:48:38.303 : en:(19)01:48:38:303
01:58:42.865 : en:(20)01:58:42:865
--Релиз группы:

Проверено на встроенном плейере ТВ LG 42LW4500
--24.04.2014. Релиз обновлён - русская дорога заменена на лицензию СЕЕ, добавлен пакет субтитров.
Желающие, скачайте заново торрент-файл.
Остальные раздачи этого фильма (5)
Благодарности релизеру (50)

Торрент:

Статус:

Размер:

Зарегистрирован   [ 2014-04-24 18:31 ]

проверено

7.94 GB

 
 Мнение о фильме (37)

1, 2  След.






Фильм нормальный, концовочка, увы, не очень...
 

Сказка основана на реальных событиях - хороший фильм на 4+
 

От фильма не в восторге, ожидал много большего, судя по трейлеру, но видно, весь пар и ушел в свисток-трейлер. 3D неоднозначное - вроде бы местами есть ( в глубину), но по большей части умело маскируется под обычный 2D :). Вот такое мнение от ночного просмотра.
 

Спасибо огромное за релиз фильм хороший.
 

да, фильм весьма неплох. жаль не хватает крови, что бы придало ронинам особенный правдоподобный привкус. а то отрубание головы без единой капли крови слишком уж цензурно смотрится. даю плюс за переданную идею: верность, честь, достоинство. 3д вполне приемлемое. средняя оценка 7.
 

Фильм понравился, стоит посмотреть, а вот 3д слабенькое.
 

Фильм на любителя,очень красивый,но сюжет мне показался слабоват
 

УГ...Увы...
 

Мне понравился фильм, нравятся сказки, концовка плохая поэтому и не люблю фильмы с азиатами. качество хорошее, звук отличный, спецэффекты нормальные без перебора.
 

фильм понравился жаль звук 2х канальный
 

Нормальный фильм.Качество хорошее.
 

Спасибо за фильм -хорошая работа- посмотрел-отдохнул-отвлекся от повседневной суеты.
 

Спасибо фильм хороший.
 

Фильм средненький, однако рип выполнен, как всегда, хорошо. Спасибо!!!.
 

Красивый фильм! Смотреть обязательно!
 

гарне кіно.якість 3d хороша
 

Фильм красивый. 3д смотрительно.
 
Виталий Цыганов Профиль 17-Апр-2014 12:10

Фильм не плохой, можно посмотреть.
 

Спасибо за релиз! Хороший звук, хорошее 3Д. Сказзка о любви. Японьской.
 

А продолжение будет? ;)
 

Страница 1 из 2

1, 2  След.