Торренты   
 
 


47 ронинов в 3Д / 47 Ronin 3D (2013) [miniBDRip, 1080p] Anamorph SideBySide / Горизонтальная анаморфная стереопара

Рейтинг 3D:
111 голосов
6.6
Рейтинг фильма:
114 голосов
7.3
 
Вы должны быть авторизированы,
чтобы ставить оценки


47 ронинов в 3Д / 47 Ronin 3D
Год выпуска: 2013
Страна: США
Жанр: фэнтези, боевик, приключения
Продолжительность: 01:58:46
Перевод: Профессиональный (полное дублирование) |iTunes + Mic|
Режиссер: Карл Ринш
В ролях: Киану Ривз, Хироюки Санада, Ко Шибасаки, Таданобу Асано, Мин Танака, Джин Аканиши, Масаёси Ханеда, Хироси Согабэ, Такато Йонемото, Хироси Ямада
Описание: Таинственный странник, преданный всеми, проданный в рабство, избранный судьбой вершить месть, станет одним из 47 воинов, бросивших вызов смерти. Явившись из другого мира, он восстанет против темных сил, чтобы защитить свою запретную любовь.
Формат 3D: Anamorph SideBySide / Горизонтальная анаморфная стереопара
Порядок ракурсов: левый ракурс первый
Качество: miniBDRip
Контейнер: MKV
Видео кодек: x264
Аудио кодек: AC3
Видео: MPEG-4 AVC, 2133 Кбит/сек, 1920х1080, 23,976 кадр/с
Аудио 1Русский / AC3 / 48 KHz / 6 ch / 384 Kbps (Дубляж - iTunes)
Аудио 2: Українська / AC3 / 48 KHz / 2 ch / 192 Kbps (Дубляж - Mic)

Скриншоты


MediaInfo

Общее
Уникальный идентификатор : 226083080012232467815767518513873418690 (0xAA16047275299ECABD216FB36731F9C2)
Полное имя : D:\Download\47 Ronin 3D 2013 miniBDRip 1080p halfSbS (IgorekSh) [ДОЛОЙ РЕКЛАМУ!].mkv
Формат : Matroska
Версия формата : Version 2
Размер файла : 2,25 Гбайт
Продолжительность : 1 ч. 58 м.
Общий поток : 2710 Кбит/сек
Название фильма : ДОЛОЙ РЕКЛАМУ!
Дата кодирования : UTC 2014-04-10 09:58:39
Программа кодирования : mkvmerge v4.0.0 ('The Stars were mine') сборка от Jun 6 2010 16:18:42
Библиотека кодирования : libebml v1.0.0 + libmatroska v1.0.0
Видео
Идентификатор : 1
Формат : AVC
Формат/Информация : Advanced Video Codec
Профиль формата : High@L4.1
Параметр CABAC формата : Да
Параметр ReFrames формата : 4 кадра
Идентификатор кодека : V_MPEG4/ISO/AVC
Продолжительность : 1 ч. 58 м.
Битрейт : 2133 Кбит/сек
Ширина : 1920 пикселей
Высота : 1080 пикселей
Соотношение сторон : 16:9
Режим частоты кадров : Постоянный
Частота кадров : 23,976 кадра/сек
Цветовое пространство : YUV
Субдискретизация насыщенности : 4:2:0
Битовая глубина : 8 бит
Тип развёртки : Прогрессивная
Бит/(Пиксели*Кадры) : 0.043
Размер потока : 1,73 Гбайт (77%)
Заголовок : IgorekSh [ДОЛОЙ РЕКЛАМУ!]
Библиотека кодирования : x264 core 135 r2 f0c1c53
Настройки программы : cabac=1 / ref=4 / deblock=1:-1:-1 / analyse=0x3:0x133 / me=umh / subme=9 / psy=1 / psy_rd=1.00:0.15 / mixed_ref=1 / me_range=24 / chroma_me=1 / trellis=2 / 8x8dct=1 / cqm=0 / deadzone=21,11 / fast_pskip=0 / chroma_qp_offset=-3 / threads=18 / lookahead_threads=1 / sliced_threads=0 / nr=0 / decimate=1 / interlaced=0 / bluray_compat=0 / constrained_intra=0 / bframes=3 / b_pyramid=2 / b_adapt=2 / b_bias=0 / direct=3 / weightb=1 / open_gop=0 / weightp=2 / keyint=250 / keyint_min=23 / scenecut=40 / intra_refresh=0 / rc_lookahead=60 / rc=2pass / mbtree=1 / bitrate=2133 / ratetol=1.0 / qcomp=0.60 / qpmin=0 / qpmax=69 / qpstep=4 / cplxblur=20.0 / qblur=0.5 / vbv_maxrate=31250 / vbv_bufsize=31250 / nal_hrd=none / ip_ratio=1.40 / aq=1:1.00
Язык : English
Default : Нет
Forced : Нет
Основные цвета : BT.709
Коэффициенты матрицы : BT.709
Аудио #1
Идентификатор : 2
Формат : AC-3
Формат/Информация : Audio Coding 3
Расширение режима : CM (complete main)
Параметр Endianness формата : Big
Идентификатор кодека : A_AC3
Продолжительность : 1 ч. 58 м.
Вид битрейта : Постоянный
Битрейт : 384 Кбит/сек
Каналы : 6 каналов
Расположение каналов : Front: L C R, Side: L R, LFE
Частота : 48,0 КГц
Битовая глубина : 16 бит
Метод сжатия : С потерями
Размер потока : 326 Мбайт (14%)
Заголовок : ДОЛОЙ РЕКЛАМУ!
Язык : Russian
Default : Нет
Forced : Нет
Аудио #2
Идентификатор : 3
Формат : AC-3
Формат/Информация : Audio Coding 3
Расширение режима : CM (complete main)
Параметр Endianness формата : Big
Идентификатор кодека : A_AC3
Продолжительность : 1 ч. 58 м.
Вид битрейта : Постоянный
Битрейт : 192 Кбит/сек
Каналы : 2 канала
Расположение каналов : Front: L R
Частота : 48,0 КГц
Битовая глубина : 16 бит
Метод сжатия : С потерями
Размер потока : 163 Мбайт (7%)
Заголовок : ДОЛОЙ РЕКЛАМУ!
Язык : Ukrainian
Default : Да
Forced : Нет
10.04.2014 Раздача обновлена.
Русская звуковая дорожка "чистый звук" заменена на лицензионный iTunes.
Добавлена украинская звуковая дорожка Mic.
Желающие, скачайте заново торрент-файл.
Остальные раздачи этого фильма (5)
Благодарности релизеру (8)

Торрент:

Статус:

Размер:

Зарегистрирован   [ 2014-04-10 14:31 ]

проверено

2.25 GB

 
 Мнение о фильме (37)

1, 2  След.






Фильм нормальный, концовочка, увы, не очень...
 

Сказка основана на реальных событиях - хороший фильм на 4+
 

От фильма не в восторге, ожидал много большего, судя по трейлеру, но видно, весь пар и ушел в свисток-трейлер. 3D неоднозначное - вроде бы местами есть ( в глубину), но по большей части умело маскируется под обычный 2D :). Вот такое мнение от ночного просмотра.
 

Спасибо огромное за релиз фильм хороший.
 

да, фильм весьма неплох. жаль не хватает крови, что бы придало ронинам особенный правдоподобный привкус. а то отрубание головы без единой капли крови слишком уж цензурно смотрится. даю плюс за переданную идею: верность, честь, достоинство. 3д вполне приемлемое. средняя оценка 7.
 

Фильм понравился, стоит посмотреть, а вот 3д слабенькое.
 

Фильм на любителя,очень красивый,но сюжет мне показался слабоват
 

УГ...Увы...
 

Мне понравился фильм, нравятся сказки, концовка плохая поэтому и не люблю фильмы с азиатами. качество хорошее, звук отличный, спецэффекты нормальные без перебора.
 

фильм понравился жаль звук 2х канальный
 

Нормальный фильм.Качество хорошее.
 

Спасибо за фильм -хорошая работа- посмотрел-отдохнул-отвлекся от повседневной суеты.
 

Спасибо фильм хороший.
 

Фильм средненький, однако рип выполнен, как всегда, хорошо. Спасибо!!!.
 

Красивый фильм! Смотреть обязательно!
 

гарне кіно.якість 3d хороша
 

Фильм красивый. 3д смотрительно.
 
Виталий Цыганов Профиль 17-Апр-2014 12:10

Фильм не плохой, можно посмотреть.
 

Спасибо за релиз! Хороший звук, хорошее 3Д. Сказзка о любви. Японьской.
 

А продолжение будет? ;)
 

Страница 1 из 2

1, 2  След.