Торренты   
 
 


47 p o н u н o в в 3Д / 47 R о n і n 3D (Kapл Pинш / Саrl Rіnsсh) [2013, Фэнтези, Боевик, Приключения, BDrip, 1080p]Full OverUnder / Вертикальная стереопара

Рейтинг 3D:
111 голосов
6.6
Рейтинг фильма:
114 голосов
7.3
 
Вы должны быть авторизированы,
чтобы ставить оценки


47 ронинов / 47 Ronin
Год выпуска: 2013
Страна: США (Universal Pictures, Relativity Media)
Жанр: Фэнтези, Боевик, Приключения
Продолжительность: 1:58:43
Перевод: Профессиональный дублированный(Лицензия)
Русские субтитры: нет
Режиссер на русском: Карл Ринш
Режиссер на английском: Carl Rinsch
В ролях: Ринко Кикучи, Киану Ривз, Хироюки Санада, Кэри-Хироюки Тагава, Таданобу Асано, Йорик ван Вагенинген, Стивен Оюнг, Ко Шибасаки, Того Игава, Рик Жене
Описание: Таинственный странник, преданный всеми, проданный в рабство, избранный судьбой вершить месть, станет одним из 47 воинов, бросивших вызов смерти. Явившись из другого мира, он восстанет против темных сил, чтобы защитить свою запретную любовь.
Сэмпл: http://www.sendspace.com/file/iz3tae
Качество: BDrip
Контейнер: MKV
Формат 3D: OverUnder / Вертикальная стереопара
Порядок ракурсов: левый ракурс первый
Видео кодек: x264
Аудио кодек: AC3
Видео: AVC / High@L5.0 / 23,976 fps / 1920х1600 / 16,4 Мбит/сек
Аудио: Русский / DTS / 48 KHz / 5.1 ch / 768 Кбит/сек(Лицензия)
Аудио 2: Английский / AC3 / 48 KHz / 5.1 ch / 640 Кбит/сек
Релиз группы: ВНИМАНИЕ ! На встроенных ТВ-плеерах работать не будет!!!
Железные плееры на которых воспроизводятся полные стереопары:Popcorn C-200 , Dune HD Smart D1 , Dune HD DUO , Dune HD Smart H1 , Dune HD Smart B1 , Dune HD Max , Dune HD TV-303D , Dune HD Base 3D

27.04.2014 Релиз обновлен - русская звуковая дорожка "чистый звук" заменена на лицензию . Желающие скачайте заново торрент-файл

MediaInfo

Общее
Уникальный идентификатор : 215704515099574927225400054191357240218 (0xA2472DB0AAD832188A22BF1D9905239A)
Полное имя : E:\закачки\47 Ronin.Rip by SeRoGa00.mkv
Формат : Matroska
Версия формата : Version 2
Размер файла : 15,1 Гбайт
Продолжительность : 1 ч. 58 м.
Общий поток : 18,2 Мбит/сек
Дата кодирования : UTC 2014-04-27 01:05:47
Программа кодирования : mkvmerge v3.4.0 ('Rapunzel') сборка от May 15 2010 09:38:20
Библиотека кодирования : libebml v0.8.0 + libmatroska v0.9.0
Видео
Идентификатор : 1
Формат : AVC
Формат/Информация : Advanced Video Codec
Профиль формата : High@L5.0
Параметр CABAC формата : Да
Параметр ReFrames формата : 4 кадра
Идентификатор кодека : V_MPEG4/ISO/AVC
Продолжительность : 1 ч. 58 м.
Битрейт : 16,4 Мбит/сек
Ширина : 1920 пикселей
Высота : 1600 пикселей
Соотношение сторон : 1,200
Частота кадров : 23,976 кадра/сек
Цветовое пространство : YUV
Субдискретизация насыщенности : 4:2:0
Битовая глубина : 8 бит
Тип развёртки : Прогрессивная
Бит/(Пиксели*Кадры) : 0.223
Размер потока : 13,6 Гбайт (90%)
Заголовок : Rip by SeRoGa00
Библиотека кодирования : x264 core 138 r2356 a1d3d17
Настройки программы : cabac=1 / ref=4 / deblock=1:-3:-3 / analyse=0x3:0x113 / me=umh / subme=9 / psy=1 / psy_rd=1.00:0.15 / mixed_ref=1 / me_range=24 / chroma_me=1 / trellis=2 / 8x8dct=1 / cqm=0 / deadzone=21,11 / fast_pskip=1 / chroma_qp_offset=-3 / threads=9 / lookahead_threads=1 / sliced_threads=0 / nr=0 / decimate=1 / interlaced=0 / bluray_compat=0 / constrained_intra=0 / bframes=8 / b_pyramid=2 / b_adapt=2 / b_bias=0 / direct=3 / weightb=1 / open_gop=0 / weightp=2 / keyint=250 / keyint_min=23 / scenecut=40 / intra_refresh=0 / rc_lookahead=60 / rc=crf / mbtree=1 / crf=18.0 / qcomp=0.60 / qpmin=10 / qpmax=69 / qpstep=4 / vbv_maxrate=40000 / vbv_bufsize=40000 / crf_max=0.0 / nal_hrd=none / ip_ratio=1.40 / aq=1:1.00
Язык : English
Аудио #1
Идентификатор : 2
Формат : DTS
Формат/Информация : Digital Theater Systems
Идентификатор кодека : A_DTS
Продолжительность : 1 ч. 58 м.
Вид битрейта : Постоянный
Битрейт : 768 Кбит/сек
Каналы : 6 каналов
Расположение каналов : Front: L C R, Side: L R, LFE
Частота : 48,0 КГц
Битовая глубина : 24 бит
Метод сжатия : С потерями
Размер потока : 641 Мбайт (4%)
Язык : Russian
Аудио #2
Идентификатор : 3
Формат : AC-3
Формат/Информация : Audio Coding 3
Расширение режима : CM (complete main)
Идентификатор кодека : A_AC3
Продолжительность : 1 ч. 58 м.
Вид битрейта : Постоянный
Битрейт : 640 Кбит/сек
Каналы : 6 каналов
Расположение каналов : Front: L C R, Side: L R, LFE
Частота : 48,0 КГц
Битовая глубина : 16 бит
Метод сжатия : С потерями
Размер потока : 543 Мбайт (4%)
Язык : English

Скриншоты


Остальные раздачи этого фильма (5)
Благодарности релизеру (10)

Торрент:

Статус:

Размер:

Зарегистрирован   [ 2014-04-27 14:39 ]

проверено

15.05 GB

 
 Мнение о фильме (37)

1, 2  След.






Фильм нормальный, концовочка, увы, не очень...
 

Сказка основана на реальных событиях - хороший фильм на 4+
 

От фильма не в восторге, ожидал много большего, судя по трейлеру, но видно, весь пар и ушел в свисток-трейлер. 3D неоднозначное - вроде бы местами есть ( в глубину), но по большей части умело маскируется под обычный 2D :). Вот такое мнение от ночного просмотра.
 

Спасибо огромное за релиз фильм хороший.
 

да, фильм весьма неплох. жаль не хватает крови, что бы придало ронинам особенный правдоподобный привкус. а то отрубание головы без единой капли крови слишком уж цензурно смотрится. даю плюс за переданную идею: верность, честь, достоинство. 3д вполне приемлемое. средняя оценка 7.
 

Фильм понравился, стоит посмотреть, а вот 3д слабенькое.
 

Фильм на любителя,очень красивый,но сюжет мне показался слабоват
 

УГ...Увы...
 

Мне понравился фильм, нравятся сказки, концовка плохая поэтому и не люблю фильмы с азиатами. качество хорошее, звук отличный, спецэффекты нормальные без перебора.
 

фильм понравился жаль звук 2х канальный
 

Нормальный фильм.Качество хорошее.
 

Спасибо за фильм -хорошая работа- посмотрел-отдохнул-отвлекся от повседневной суеты.
 

Спасибо фильм хороший.
 

Фильм средненький, однако рип выполнен, как всегда, хорошо. Спасибо!!!.
 

Красивый фильм! Смотреть обязательно!
 

гарне кіно.якість 3d хороша
 

Фильм красивый. 3д смотрительно.
 
Виталий Цыганов Профиль 17-Апр-2014 12:10

Фильм не плохой, можно посмотреть.
 

Спасибо за релиз! Хороший звук, хорошее 3Д. Сказзка о любви. Японьской.
 

А продолжение будет? ;)
 

Страница 1 из 2

1, 2  След.