Торренты   
 
 

 

Хоббит: Пустошь Смауга в 3Д / The Hobbit: The Desolation Of Smaug 3D (2013) [BDRip, 1080p] Anamorph SideBySide / Горизонтальная анаморфная стереопара

Рейтинг 3D:
120 голосов
7.8
Рейтинг фильма:
125 голосов
8.1
 
Вы должны быть авторизированы,
чтобы ставить оценки


Xoббит: Пуcтoшь Смayгa в 3Д
Тhе Ноbbit: Тhе Dеsоlаtiоn Оf Smаug 3D
Год выхода: 2013
Жанр: Фэнтези, приключения
Страна: США, Новая Зеландия
Продолжительность: 02:41:17
Перевод: Дублированное [Лицензия]
Режиссер: Питep Джeкcoн
В ролях: Мартин Фриман, Иэн МакКеллен, Ричард Армитедж, Джеймс Несбитт, Кен Стотт, Грэм МакТавиш, Уильям Кирчер, Стивен Хантер, Дин О’Горман, Эйдан Тернер
Описание: После успешного перехода через Туманные горы, Торин и компания вынуждены обратиться за помощью к могучему незнакомцу, прежде чем отправиться в опасное Лихолесье без волшебника. Их компания обязана завершить свое путешествие к Одинокой горе, где Бэггинсу нужно будет найти потайную дверь, чтобы добраться до клада Смауга…

Формат 3D: Anamorph SideBySide / Горизонтальная анаморфная стереопара
Порядок ракурсов: левый ракурс первый
Качество: BDRip
Контейнер: MKV
Видео кодек: x264
Аудио кодек: AC3
Видео: MPEG-4 AVC, 13,9 Мбит/с, 1920х1080, 23.976 кадр/с
Аудио 1Русский / AC3 / 48 KHz / 6 ch / 448 Kbps (Дубляж - Лицензия)
Аудио 2Українська / AC3 / 48 KHz / 6 ch / 448 Kbps (Дубляж - Лицензия)
Субтитры: Russian (Forced, iTunes), Russian (iTunes), Ukrainian (Forced, iTunes), Ukrainian (iTunes), English

Скриншоты


MediaInfo

Общее
Уникальный идентификатор : 220160029379513714824687092981668741527 (0xA5A147811DEEB95A957ED57339278197)
Полное имя : D:\Download\The Hobbit. The Desolation Of Smaug 3D 2013 BDRip 1080p halfSbS (IgorekSh) [ДОЛОЙ РЕКЛАМУ!].mkv
Формат : Matroska
Версия формата : Version 2
Размер файла : 17,0 Гбайт
Продолжительность : 2 ч. 41 м.
Общий поток : 15,1 Мбит/сек
Название фильма : ДОЛОЙ РЕКЛАМУ!
Дата кодирования : UTC 2014-03-27 11:04:30
Программа кодирования : mkvmerge v4.0.0 ('The Stars were mine') сборка от Jun 6 2010 16:18:42
Библиотека кодирования : libebml v1.0.0 + libmatroska v1.0.0
Видео
Идентификатор : 1
Формат : AVC
Формат/Информация : Advanced Video Codec
Профиль формата : High@L4.1
MultiView_Count : 2
MultiView_Layout : Right Eye
Параметр CABAC формата : Да
Параметр ReFrames формата : 4 кадра
Идентификатор кодека : V_MPEG4/ISO/AVC
Продолжительность : 2 ч. 41 м.
Битрейт : 13,9 Мбит/сек
Ширина : 1920 пикселей
Высота : 1080 пикселей
Соотношение сторон : 16:9
Режим частоты кадров : Постоянный
Частота кадров : 23,976 кадра/сек
Цветовое пространство : YUV
Субдискретизация насыщенности : 4:2:0
Битовая глубина : 8 бит
Тип развёртки : Прогрессивная
Бит/(Пиксели*Кадры) : 0.280
Размер потока : 15,7 Гбайт (92%)
Заголовок : IgorekSh [ДОЛОЙ РЕКЛАМУ!]
Библиотека кодирования : x264 core 142 r2389kMod 956c8d8
Настройки программы : cabac=1 / ref=4 / deblock=1:-3:-3 / analyse=0x3:0x133 / me=umh / subme=11 / psy=1 / fade_compensate=0.00 / psy_rd=1.00:0.00 / mixed_ref=1 / me_range=48 / chroma_me=1 / trellis=2 / 8x8dct=1 / cqm=0 / deadzone=21,11 / fast_pskip=0 / chroma_qp_offset=-2 / threads=36 / lookahead_threads=6 / sliced_threads=0 / nr=0 / decimate=0 / interlaced=0 / bluray_compat=0 / constrained_intra=0 / fgo=0 / bframes=9 / b_pyramid=2 / b_adapt=2 / b_bias=0 / direct=3 / weightb=1 / open_gop=0 / weightp=2 / keyint=250 / keyint_min=23 / scenecut=40 / intra_refresh=0 / rc=crf / mbtree=0 / crf=15.0000 / qcomp=0.75 / qpmin=0 / qpmax=69 / qpstep=4 / frame-packing=3 / ip_ratio=1.30 / pb_ratio=1.15 / aq=2:0.85
Язык : English
Default : Да
Forced : Нет
Аудио #1
Идентификатор : 2
Формат : AC-3
Формат/Информация : Audio Coding 3
Расширение режима : CM (complete main)
Параметр Endianness формата : Big
Идентификатор кодека : A_AC3
Продолжительность : 2 ч. 41 м.
Вид битрейта : Постоянный
Битрейт : 448 Кбит/сек
Каналы : 6 каналов
Расположение каналов : Front: L C R, Side: L R, LFE
Частота : 48,0 КГц
Битовая глубина : 16 бит
Метод сжатия : С потерями
Размер потока : 517 Мбайт (3%)
Заголовок : ДОЛОЙ РЕКЛАМУ!
Язык : Russian
Default : Да
Forced : Нет
Аудио #2
Идентификатор : 3
Формат : AC-3
Формат/Информация : Audio Coding 3
Расширение режима : CM (complete main)
Параметр Endianness формата : Big
Идентификатор кодека : A_AC3
Продолжительность : 2 ч. 41 м.
Вид битрейта : Постоянный
Битрейт : 448 Кбит/сек
Каналы : 6 каналов
Расположение каналов : Front: L C R, Side: L R, LFE
Частота : 48,0 КГц
Битовая глубина : 16 бит
Метод сжатия : С потерями
Размер потока : 517 Мбайт (3%)
Заголовок : ДОЛОЙ РЕКЛАМУ!
Язык : Ukrainian
Default : Нет
Forced : Нет
Текст #1
Идентификатор : 4
Формат : UTF-8
Идентификатор кодека : S_TEXT/UTF8
Идентификатор кодека/Информация : UTF-8 Plain Text
Заголовок : Forced
Язык : Russian
Default : Да
Forced : Нет
Текст #2
Идентификатор : 5
Формат : UTF-8
Идентификатор кодека : S_TEXT/UTF8
Идентификатор кодека/Информация : UTF-8 Plain Text
Заголовок : ДОЛОЙ РЕКЛАМУ!
Язык : Russian
Default : Нет
Forced : Нет
Текст #3
Идентификатор : 6
Формат : UTF-8
Идентификатор кодека : S_TEXT/UTF8
Идентификатор кодека/Информация : UTF-8 Plain Text
Заголовок : Forced
Язык : Ukrainian
Default : Нет
Forced : Нет
Текст #4
Идентификатор : 7
Формат : UTF-8
Идентификатор кодека : S_TEXT/UTF8
Идентификатор кодека/Информация : UTF-8 Plain Text
Заголовок : ДОЛОЙ РЕКЛАМУ!
Язык : Ukrainian
Default : Нет
Forced : Нет
Текст #5
Идентификатор : 8
Формат : UTF-8
Идентификатор кодека : S_TEXT/UTF8
Идентификатор кодека/Информация : UTF-8 Plain Text
Заголовок : ДОЛОЙ РЕКЛАМУ!
Язык : English
Default : Нет
Forced : Нет
Меню
00:00:00.000 : en:The Quest for Erebor
00:05:44.093 : en:Wilderland
00:10:10.985 : en:The Master Summons
00:11:10.127 : en:A Commander of Legions
00:13:50.204 : en:Queer Lodgings
00:17:12.656 : en:The Elven-gate
00:21:25.325 : en:Mirkwood
00:24:33.471 : en:Flies and Spiders
00:33:03.272 : en:The Woodland Realm
00:36:05.746 : en:The Elvenking
00:39:38.959 : en:King and Captain
00:41:29.653 : en:Feast of Starlight
00:44:27.289 : en:Barrels Out of Bond
00:55:01.756 : en:The High Fells
00:58:41.768 : en:Bard the Bowman
01:02:05.138 : en:The Nature of Evil
01:05:29.592 : en:Smuggled Cargo
01:09:06.267 : en:Lake-town
01:11:29.118 : en:The Master of Lake-town
01:13:11.762 : en:The Home of Bard
01:19:14.958 : en:"It Is Our Fight"
01:20:48.468 : en:The Prophecy
01:23:12.529 : en:A Warm Welcome
01:27:09.641 : en:The Lonely Mountain
01:30:45.481 : en:A Spell of Concealment
01:33:29.812 : en:On the Doorstep
01:41:57.194 : en:Kingsfoil
01:42:24.471 : en:The Courage of Hobbits
01:44:08.033 : en:The Enemy Revealed
01:47:34.114 : en:Inside Information
01:56:46.332 : en:The Black Arrow
01:57:28.916 : en:In the Dragon's Lair
01:58:03.409 : en:Under Arrest
01:59:42.300 : en:Bilbo the Burglar
02:01:30.574 : en:Smaug the Magnificent
02:04:04.311 : en:Orc Attack
02:07:58.462 : en:Confrontations
02:09:43.108 : en:Elvish Medicine
02:10:58.642 : en:Hunter and Hunted
02:12:31.443 : en:"She Walks in Starlight"
02:13:54.317 : en:A Desperate Plan
02:16:25.427 : en:Duel in Lake-town
02:18:51.489 : en:The Forges Relit
02:26:03.588 : en:Smaug the Golden
02:30:51.208 : en:Credits
Остальные раздачи этого фильма (5)
Благодарности релизеру (39)

Торрент:

Статус:

Размер:

Зарегистрирован   [ 2014-03-27 16:18 ]

проверено

17.04 GB

 
 Мнение о фильме (30)

1, 2  След.






Фильм -просто шедевр! Скорее бы третья часть вышла.....
 

Вообще-то он с чёрными полосами, судя по скринам.
 

Спасибо!Давно ждал.Заранее +10 по отзывам.
 

Хорошее Фэнтези! И как обычно предрекая ожидание скорейшего выхода третьей части. 3D понравилось, особенно эпизод с пчёлками. Ждём продолжение...
 

Неплохой фильм, глянуть разок можно.
Относительно 3D - в общем-то, фильм мог совершенно обойтись без него.
Относительно самой картины - за что ругали I-ую часть, во второй сделали с избытком, причем очень притерным: экшена, ИМХО, слишком много, и из приключений местами практически скатились в тупое, но довольно эффектное рубилово. Сюжетно развития снова практически никакого (царство эльфов ==> город под горой ==> бессмысленная битва с драконом ==> coming soon), раскрытия некоторых аспектов также сильно не хватает (той же самой любовной линии). Некоторые персонажи предстают совершенно в другом ракурсе (тот же Дуболом), что по мне не слишком естественно вписалось (по I-ой части впечатления были совершенно другие). Дракон слит - после столько солидного разговора с Фрода сделать его тупейшим огнедышащим летающим динозавром...
 

Фильм понравился, и 3D на уровне. Спасибо!!!
 

хороший фильм правда заканчивается на интересном месте
 

Фильм класс, очень здорово снято, порадовал,3д хорошее, правда вылетов маловато
 
Алексей "51" Профиль 08-Апр-2014 02:37

Спасибо за оперативность. Фильм понравился. 3d на уровне.
 

ХОРОШИЙ ФИЛЬМ ХОТЕЛОСЬ БЫ ПРОДОЛЖЕНИЕ
 

Суперр!!!
 

Фильм для фанатов и любителей) 3D пойдёт 7 из 10. "Dag13"Молодец,в своём духе по обрезке.Так держать)
 

Спасибо! Фильм понравился, ждем продолжения.
 

добрых суток.)
я прошу прощения, а можно СЭМПЛ данного рипа?
я уже качал один огромедного размера, и он был в стандартном чернополосном ....вот и не знаю...просто хочется посмотреть в полном 3Д и на весь экран...
 

Дорджи, тут релизы без черных полос.
 

Что значит "Crop" в названии раздачи!
 

Что значит "Crop" в названии раздачи!
Справа и слева у видеоряда обрезано по 248р, что дает возможность просмотра на полный экран (без черных полос) на телевизорах с соотношением сторон 16:9 без изменения пропорций.
Подробнее
 

Фильм хорош! И КРОП то что нужно для 3д тв! Такие кропы нужны-такие кропы важны! СПАСИБО!
 

спасибо
 

подскажите ,плиз.. А можно ли как то просмотреть данный релиз с субтитрами на речь орков на внутреннем плеере телевизора?
 

Страница 1 из 2

1, 2  След.