Торренты   
 
 


Медсестра в 3Д / Nurse 3-D (2013) [BDrip, 1080p] Anamorph SideBySide / Горизонтальная анаморфная стереопара

Рейтинг 3D:
4 голосов
4.4
Рейтинг фильма:
4 голосов
2.6
 
Вы должны быть авторизированы,
чтобы ставить оценки


Раздача закрыта по просьбе правообладателейMeдcecтpa в 3Д / Nursе 3-D in 3D
«Ваша боль – её наслаждение»
Год выхода: 2013
Жанр: Триллер, Ужасы
Страна: США (Lionsgate)
Продолжительность: 1:23:54
Перевод: Любительский многоголосый закадровый - BaibaKo
Режиссер: Дуглас Арниокоски / Douglas Aarniokoski
Роли исполняли: Пас де ла Уэрта (Abby Russell), Катрина Боуден (Danni), Корбин Блю (Steve), Джадд Нельсон (Dr. Morris), Борис Коджо (Detective John Rogan), Адам Хершман (Jared), Найси Нэш (Regina), Кэтлин Тёрнер (Head Nurse Betty Watson), Майкл Эклунд (Richie), Мартин Донован (Larry Cook), Мелани Скорфано (Rachel Adams)
Описание: Днем Эбби Рассел является примерной медсестрой которой люди доверяют свою жизнь. Но вот ночью она по-настоящему работает используя сексуальность своего тела. Она соблазняет и обманывает людей, чтобы затем придать их жестокой смерти… Когда младшая медсестра начинает подозревать Эбби в преступлениях, она пытается вывести негодяйку на чистую воду…
Возрастное ограничение: 18+ 

Формат 3D: Anamorph SideBySide / Горизонтальная анаморфная стереопара
Порядок ракурсов: левый ракурс первый
Качество: BDRip
Контейнер: MKV
Видео кодек: x264
Аудио кодек: AC3
Видео: MPEG-4 AVC, 9 687 Кбит/с, 1920х1080, 23.976  кадр/с
АудиоРусский / AC3 / 48 KHz / 6 ch / 384 Kbps (Любительский многоголосый закадровый [BaibaKo])

Скриншоты


MediaInfo

Общее
Уникальный идентификатор : 172479167373106047659777725168983915113 (0x81C24781B1020BB5A1935E1FE5F6BA69)
Полное имя : D:\Download\Nurse 3D 2013 1080p halfSbS [3d-tracker.ru].mkv
Формат : Matroska
Версия формата : Version 2
Размер файла : 6,01 Гбайт
Продолжительность : 1 ч. 23 м.
Общий поток : 10,3 Мбит/сек
Название фильма : 3d-tracker.ru
Дата кодирования : UTC 2014-03-29 13:13:49
Программа кодирования : mkvmerge v4.0.0 ('The Stars were mine') сборка от Jun 6 2010 16:18:42
Библиотека кодирования : libebml v1.0.0 + libmatroska v1.0.0
Видео
Идентификатор : 1
Формат : AVC
Формат/Информация : Advanced Video Codec
Профиль формата : High@L4.1
Параметр CABAC формата : Да
Параметр ReFrames формата : 2 кадра
Идентификатор кодека : V_MPEG4/ISO/AVC
Продолжительность : 1 ч. 23 м.
Битрейт : 9687 Кбит/сек
Ширина : 1920 пикселей
Высота : 1080 пикселей
Соотношение сторон : 16:9
Режим частоты кадров : Постоянный
Частота кадров : 23,976 кадра/сек
Цветовое пространство : YUV
Субдискретизация насыщенности : 4:2:0
Битовая глубина : 8 бит
Тип развёртки : Прогрессивная
Бит/(Пиксели*Кадры) : 0.195
Размер потока : 5,67 Гбайт (94%)
Заголовок : 3d-tracker.ru
Библиотека кодирования : x264 core
Язык : English
Default : Нет
Forced : Нет
Основные цвета : BT.709
Характеристики трансфера : BT.709
Коэффициенты матрицы : BT.709
Аудио
Идентификатор : 2
Формат : AC-3
Формат/Информация : Audio Coding 3
Расширение режима : CM (complete main)
Параметр Endianness формата : Big
Идентификатор кодека : A_AC3
Продолжительность : 1 ч. 23 м.
Вид битрейта : Постоянный
Битрейт : 384 Кбит/сек
Каналы : 6 каналов
Расположение каналов : Front: L C R, Side: L R, LFE
Частота : 48,0 КГц
Битовая глубина : 16 бит
Метод сжатия : С потерями
Размер потока : 230 Мбайт (4%)
Заголовок : 3d-tracker.ru
Язык : Russian
Default : Нет
Forced : Нет
Меню
00:00:00.000 : en:(01)00:00:00:000
00:07:10.847 : en:(02)00:07:10:847
00:15:27.343 : en:(03)00:15:27:343
00:24:20.625 : en:(04)00:24:20:625
00:34:44.707 : en:(05)00:34:44:707
00:44:04.892 : en:(06)00:44:04:892
00:52:09.584 : en:(07)00:52:09:584
01:01:07.914 : en:(08)01:01:07:914
01:10:49.286 : en:(09)01:10:49:286
01:19:23.258 : en:(10)01:19:23:258
01:23:53.820 : en:(11)01:23:53:820
Благодарности релизеру (1)

Торрент:

Статус:

Размер:

Зарегистрирован   [ 2014-03-29 17:40 ]

© закрыто правообладателем

6.01 GB

 
 Мнение о фильме (4)





Резво ! Интересно,там успею?
 

Рейтинг на кинопоиске сильно завышен.
 

Рейтинг на кинопоиске сильно завышен.
А на IMDb норма)))
 

Понравилось. Нуарный саундтрек, Пас де ла Уэрта в роли маньячки-медсестры и концовка в стиле "Забирая жизни".