Торренты   
 
 

 

Хоббит: Пустошь Смауга / The Hobbit: The Desolation of Smaug (Питер Джексон) [2013 г., Фэнтези, приключения, BDRip 1080p] Анаглиф (Дюбуа) (CROP)

Рейтинг 3D:
120 голосов
7.8
Рейтинг фильма:
125 голосов
8.1
 
Вы должны быть авторизированы,
чтобы ставить оценки


Хоббит: Пустошь Смауга / The Hobbit: The Desolation of Smaug
Год выпуска: 2013
Страна: США, Новая Зеландия, Metro-Goldwyn-Mayer (MGM), New Line Cinema, WingNut Films
Жанр: Фэнтези, приключения,
Продолжительность: 02:41:17
Перевод: Дубляж, Лицензия
Субтитры: Русские, Украинские, Английские
Режиссер: Питер Джексон
Продюссер: Кэролинн Каннингэм, Питер Джексон, Фрэнсис Уолш
Сценарий: Фрэнсис Уолш, Филиппа Бойенс, Питер Джексон
Бюджет: $225 000 000
Премьера в мире: 2 декабря 2013

В ролях:Мартин Фриман, Иэн МакКеллен, Орландо Блум, Эванджелин Лилли, Бенедикт Камбербэтч, Люк Эванс, Элайджа Вуд, Иэн Холм, Кейт Бланшетт, Энди Серкис, Кристофер Ли, Ричард Армитедж, Ли Пейс, Стивен Фрай,
Описание: После успешного перехода через Туманные горы, Торин и компания вынуждены обратиться за помощью к могучему незнакомцу, прежде чем отправиться в опасное Лихолесье без волшебника. Их компания обязана завершить свое путешествие к Одинокой горе, где Бэггинсу нужно будет найти потайную дверь, чтобы добраться до клада Смауга…
Доп. информация: Формат 3D: Анаглиф (Дюбуа)

Качество: BDRip 1080p
Формат: MKV
Видео кодек: H.264
Аудио кодек: AC3
Видео: x264, 1920 x 1080 (16:9), 9601 kbps, 23,976 fps, ( 0.193 bpp)
Аудио#1: Русский / AC3 / 48 KHz / 5.1 ch / 448 Kbps (Дубляж)
Аудио#2: Английский / AC3 / 48 KHz / 5.1 ch / 448 Kbps

Скриншоты

MediaInfo

Общее
Уникальный идентификатор : 206867286503047834681881023241052778186 (0x9BA130AE4335C83F83FEDD3DBF146ECA)
Полное имя : D: The.Hobbit.2(2013)3D(Anaglyph_Dubois).mkv
Формат : Matroska
Версия формата : Version 4 / Version 2
Размер файла : 12,1 Гбайт
Продолжительность : 2 ч. 41 м.
Общий поток : 10,7 Мбит/сек
Название фильма : Хоббит: Пустошь Смауга / The Hobbit: The Desolation of Smaug (2013) 3D (Anaglyph_Dubois)(CROP)
Дата кодирования : UTC 2014-03-26 17:10:40
Программа кодирования : mkvmerge v6.2.0 ('Promised Land') built on Apr 28 2013 12:22:01
Библиотека кодирования : libebml v1.3.0 + libmatroska v1.4.0
Видео
Идентификатор : 1
Формат : AVC
Формат/Информация : Advanced Video Codec
Профиль формата : High@L4.1
MultiView_Count : 2
MultiView_Layout : Anaglyph (cyan/red)
Параметр CABAC формата : Да
Параметр ReFrames формата : 4 кадра
Идентификатор кодека : V_MPEG4/ISO/AVC
Продолжительность : 2 ч. 41 м.
Битрейт : 9601 Кбит/сек
Ширина : 1920 пикселей
Высота : 1080 пикселей
Соотношение сторон : 16:9
Режим частоты кадров : Постоянный
Частота кадров : 23,976 кадра/сек
Цветовое пространство : YUV
Субдискретизация насыщенности : 4:2:0
Битовая глубина : 8 бит
Тип развёртки : Прогрессивная
Бит/(Пиксели*Кадры) : 0.193
Размер потока : 10,8 Гбайт (90%)
Заголовок : The Hobbit: The Desolation of Smaug (2013) 3D (Anaglyph_Dubois)(CROP).mkv
Библиотека кодирования : x264 core 130 r2274bm c832fe9
Настройки программы : cabac=1 / ref=4 / deblock=1:-1:-1 / analyse=0x3:0x113 / me=umh / subme=8 / psy=1 / psy_rd=1.00:0.15 / mixed_ref=1 / me_range=16 / chroma_me=1 / trellis=1 / 8x8dct=1 / cqm=0 / deadzone=21,11 / fast_pskip=1 / chroma_qp_offset=-3 / threads=2 / lookahead_threads=2 / sliced_threads=1 / slices=2 / nr=0 / decimate=1 / interlaced=0 / bluray_compat=0 / constrained_intra=0 / bframes=0 / weightp=2 / keyint=250 / keyint_min=23 / scenecut=40 / intra_refresh=0 / rc=crf / mbtree=0 / crf=20.8 / qcomp=0.60 / qpmin=0 / qpmax=69 / qpstep=4 / ip_ratio=1.40 / aq=1:1.00
Язык : English
Default : Да
Forced : Нет
Аудио #1
Идентификатор : 2
Формат : AC-3
Формат/Информация : Audio Coding 3
Расширение режима : CM (complete main)
Параметр Endianness формата : Big
Идентификатор кодека : A_AC3
Продолжительность : 2 ч. 41 м.
Вид битрейта : Постоянный
Битрейт : 448 Кбит/сек
Каналы : 6 каналов
Расположение каналов : Front: L C R, Side: L R, LFE
Частота : 48,0 КГц
Битовая глубина : 16 бит
Метод сжатия : С потерями
Размер потока : 517 Мбайт (4%)
Заголовок : Dub | DD 5.1 @ 448 kbps - Blu-ray CEE
Язык : Russian
Default : Да
Forced : Нет
Аудио #2
Идентификатор : 3
Формат : AC-3
Формат/Информация : Audio Coding 3
Расширение режима : CM (complete main)
Параметр Endianness формата : Big
Идентификатор кодека : A_AC3
Продолжительность : 2 ч. 41 м.
Вид битрейта : Постоянный
Битрейт : 448 Кбит/сек
Каналы : 6 каналов
Расположение каналов : Front: L C R, Side: L R, LFE
Частота : 48,0 КГц
Битовая глубина : 16 бит
Метод сжатия : С потерями
Размер потока : 517 Мбайт (4%)
Заголовок : Original | DD 5.1 @ 448 kbps
Язык : English
Default : Нет
Forced : Нет
Текст #1
Идентификатор : 4
Формат : UTF-8
Идентификатор кодека : S_TEXT/UTF8
Идентификатор кодека/Информация : UTF-8 Plain Text
Заголовок : Forced
Язык : Russian
Default : Да
Forced : Да
Текст #2
Идентификатор : 5
Формат : UTF-8
Идентификатор кодека : S_TEXT/UTF8
Идентификатор кодека/Информация : UTF-8 Plain Text
Язык : Russian
Default : Нет
Forced : Нет
Текст #3
Идентификатор : 6
Формат : UTF-8
Идентификатор кодека : S_TEXT/UTF8
Идентификатор кодека/Информация : UTF-8 Plain Text
Заголовок : Forced
Язык : Ukrainian
Default : Нет
Forced : Нет
Текст #4
Идентификатор : 7
Формат : UTF-8
Идентификатор кодека : S_TEXT/UTF8
Идентификатор кодека/Информация : UTF-8 Plain Text
Язык : Ukrainian
Default : Нет
Forced : Нет
Текст #5
Идентификатор : 8
Формат : UTF-8
Идентификатор кодека : S_TEXT/UTF8
Идентификатор кодека/Информация : UTF-8 Plain Text
Язык : English
Default : Нет
Forced : Нет
Меню
00:00:00.000 : en:The Quest for Erebor
00:05:44.093 : en:Wilderland
00:10:10.985 : en:The Master Summons
00:11:10.127 : en:A Commander of Legions
00:13:50.204 : en:Queer Lodgings
00:17:12.656 : en:The Elven-gate
00:21:25.325 : en:Mirkwood
00:24:33.471 : en:Flies and Spiders
00:33:03.272 : en:The Woodland Realm
00:36:05.746 : en:The Elvenking
00:39:38.959 : en:King and Captain
00:41:29.653 : en:Feast of Starlight
00:44:27.289 : en:Barrels Out of Bond
00:55:01.756 : en:The High Fells
00:58:41.768 : en:Bard the Bowman
01:02:05.138 : en:The Nature of Evil
01:05:29.592 : en:Smuggled Cargo
01:09:06.267 : en:Lake-town
01:11:29.118 : en:The Master of Lake-town
01:13:11.762 : en:The Home of Bard
01:19:14.958 : en:"It Is Our Fight"
01:20:48.468 : en:The Prophecy
01:23:12.529 : en:A Warm Welcome
01:27:09.641 : en:The Lonely Mountain
01:30:45.481 : en:A Spell of Concealment
01:33:29.812 : en:On the Doorstep
01:41:57.194 : en:Kingsfoil
01:42:24.471 : en:The Courage of Hobbits
01:44:08.033 : en:The Enemy Revealed
01:47:34.114 : en:Inside Information
01:56:46.332 : en:The Black Arrow
01:57:28.916 : en:In the Dragon's Lair
01:58:03.409 : en:Under Arrest
01:59:42.300 : en:Bilbo the Burglar
02:01:30.574 : en:Smaug the Magnificent
02:04:04.311 : en:Orc Attack
02:07:58.462 : en:Confrontations
02:09:43.108 : en:Elvish Medicine
02:10:58.642 : en:Hunter and Hunted
02:12:31.443 : en:"She Walks in Starlight"
02:13:54.317 : en:A Desperate Plan
02:16:25.427 : en:Duel in Lake-town
02:18:51.489 : en:The Forges Relit
02:26:03.588 : en:Smaug the Golden
02:30:51.208 : en:Credits
Остальные раздачи этого фильма (5)
Благодарности релизеру (0)

Торрент:

Статус:

Размер:

Зарегистрирован   [ 2014-03-29 20:26 ]

* не проверено

12.07 GB

 
 Мнение о фильме (30)

1, 2  След.






Фильм -просто шедевр! Скорее бы третья часть вышла.....
 

Вообще-то он с чёрными полосами, судя по скринам.
 

Спасибо!Давно ждал.Заранее +10 по отзывам.
 

Хорошее Фэнтези! И как обычно предрекая ожидание скорейшего выхода третьей части. 3D понравилось, особенно эпизод с пчёлками. Ждём продолжение...
 

Неплохой фильм, глянуть разок можно.
Относительно 3D - в общем-то, фильм мог совершенно обойтись без него.
Относительно самой картины - за что ругали I-ую часть, во второй сделали с избытком, причем очень притерным: экшена, ИМХО, слишком много, и из приключений местами практически скатились в тупое, но довольно эффектное рубилово. Сюжетно развития снова практически никакого (царство эльфов ==> город под горой ==> бессмысленная битва с драконом ==> coming soon), раскрытия некоторых аспектов также сильно не хватает (той же самой любовной линии). Некоторые персонажи предстают совершенно в другом ракурсе (тот же Дуболом), что по мне не слишком естественно вписалось (по I-ой части впечатления были совершенно другие). Дракон слит - после столько солидного разговора с Фрода сделать его тупейшим огнедышащим летающим динозавром...
 

Фильм понравился, и 3D на уровне. Спасибо!!!
 

хороший фильм правда заканчивается на интересном месте
 

Фильм класс, очень здорово снято, порадовал,3д хорошее, правда вылетов маловато
 
Алексей "51" Профиль 08-Апр-2014 02:37

Спасибо за оперативность. Фильм понравился. 3d на уровне.
 

ХОРОШИЙ ФИЛЬМ ХОТЕЛОСЬ БЫ ПРОДОЛЖЕНИЕ
 

Суперр!!!
 

Фильм для фанатов и любителей) 3D пойдёт 7 из 10. "Dag13"Молодец,в своём духе по обрезке.Так держать)
 

Спасибо! Фильм понравился, ждем продолжения.
 

добрых суток.)
я прошу прощения, а можно СЭМПЛ данного рипа?
я уже качал один огромедного размера, и он был в стандартном чернополосном ....вот и не знаю...просто хочется посмотреть в полном 3Д и на весь экран...
 

Дорджи, тут релизы без черных полос.
 

Что значит "Crop" в названии раздачи!
 

Что значит "Crop" в названии раздачи!
Справа и слева у видеоряда обрезано по 248р, что дает возможность просмотра на полный экран (без черных полос) на телевизорах с соотношением сторон 16:9 без изменения пропорций.
Подробнее
 

Фильм хорош! И КРОП то что нужно для 3д тв! Такие кропы нужны-такие кропы важны! СПАСИБО!
 

спасибо
 

подскажите ,плиз.. А можно ли как то просмотреть данный релиз с субтитрами на речь орков на внутреннем плеере телевизора?
 

Страница 1 из 2

1, 2  След.