Торренты   
 
 


M e д c e c т p a в 3Д / N u r s е 3-D 3D (Дyглac Apниокocки / Dоuglаs Аarniоkоski) [2013, Триллер,ужасы, BDrip, 1080p]Full OverUnder / Вертикальная стереопара

Рейтинг 3D:
2 голосов
5.5
Рейтинг фильма:
2 голосов
5.5
 
Вы должны быть авторизированы,
чтобы ставить оценки


Медсестра / Nurse 3-D
Год выпуска: 2013
Страна: США
Студия: Lions Gate Entertainment
Жанр: Триллер,ужасы
Продолжительность: 01:23:54
Переводы:
1 - Любительский многоголосый закадровый - BaibaKo;
2 - Любительский одноголосый закадровый - Акалит;
3 - Любительский многоголосый закадровый - den904 & DeadSno и Васька Куролесов
Русские субтитры: нет
Режиссер на русском: Дуглас Арниокоски
Режиссер на английском: Douglas Aarniokoski
В ролях: Пас де ла Уэрта, Катрина Боуден, Корбин Блю, Джадд Нельсон, Борис Коджо, Адам Хершман, Найси Нэш, Кэтлин Тёрнер, Майкл Эклунд, Мелани Скорфано
Описание: Днём Эбби Рассел является примерной медсестрой, которой люди доверяют свою жизнь. А ночью она использует собственную сексуальность, соблазняя и обманывая людей, чтобы затем убить их с особой жестокостью… Младшая медсестра начинает подозревать Эбби в преступлениях и пытается вывести негодяйку на чистую воду.
Сэмпл: http://www.sendspace.com/file/osxfle
Качество: BDrip
Контейнер: MKV
Формат 3D: OverUnder / Вертикальная стереопара
Порядок ракурсов: левый ракурс первый
Видео кодек: x264
Аудио кодек: AC3
Видео: AVC / High@L5.0 / 23,976 fps / 1920х1600 / 23,6 Мбит/сек
Аудио: Русский / AC3 / 48 KHz / 5.1 ch / 384 Kbps (MVO - BaibaKo) [Ненормативная лексика]
Аудио 2: Русский / AC3 / 48 KHz / 5.1 ch / 384 Kbps (VO - Акалит)
Аудио 3:Русский / AC3 / 48 KHz / 2 ch / 192 Kbps (MVO - den904 & DeadSno и Васька Куролесов)
Аудио 4: Английский / AC3 / 48 KHz / 5.1 ch / 640 Кбит/сек
Возрастное ограничение: 18+
Релиз группы: ВНИМАНИЕ ! На встроенных ТВ-плееерах работать не будет!!!
Железные плееры на которых воспроизводятся полные стереопары:Popcorn C-200 , Dune HD Smart D1 , Dune HD DUO , Dune HD Smart H1 , Dune HD Smart B1 , Dune HD Max , Dune HD TV-303D , Dune HD Base 3D

MediaInfo

Общее
Уникальный идентификатор : 213913081873486693836465139732153167517 (0xA0EE29367C40AF2C9E5B365C9198EE9D)
Полное имя : E:\закачки\Nurse 3-D.Rip by SeRoGa00.mkv
Формат : Matroska
Версия формата : Version 2
Размер файла : 15,0 Гбайт
Продолжительность : 1 ч. 23 м.
Общий поток : 25,7 Мбит/сек
Дата кодирования : UTC 2014-04-01 06:31:50
Программа кодирования : mkvmerge v3.4.0 ('Rapunzel') сборка от May 15 2010 09:38:20
Библиотека кодирования : libebml v0.8.0 + libmatroska v0.9.0
Видео
Идентификатор : 1
Формат : AVC
Формат/Информация : Advanced Video Codec
Профиль формата : High@L5.0
Параметр CABAC формата : Да
Параметр ReFrames формата : 4 кадра
Идентификатор кодека : V_MPEG4/ISO/AVC
Продолжительность : 1 ч. 23 м.
Битрейт : 23,6 Мбит/сек
Ширина : 1920 пикселей
Высота : 1600 пикселей
Соотношение сторон : 1,200
Частота кадров : 23,976 кадра/сек
Цветовое пространство : YUV
Субдискретизация насыщенности : 4:2:0
Битовая глубина : 8 бит
Тип развёртки : Прогрессивная
Бит/(Пиксели*Кадры) : 0.320
Размер потока : 13,8 Гбайт (92%)
Заголовок : Rip by SeRoGa00
Библиотека кодирования : x264 core 138 r2356 a1d3d17
Настройки программы : cabac=1 / ref=4 / deblock=1:-3:-3 / analyse=0x3:0x113 / me=umh / subme=9 / psy=1 / psy_rd=1.00:0.15 / mixed_ref=1 / me_range=24 / chroma_me=1 / trellis=2 / 8x8dct=1 / cqm=0 / deadzone=21,11 / fast_pskip=1 / chroma_qp_offset=-3 / threads=9 / lookahead_threads=1 / sliced_threads=0 / nr=0 / decimate=1 / interlaced=0 / bluray_compat=0 / constrained_intra=0 / bframes=8 / b_pyramid=2 / b_adapt=2 / b_bias=0 / direct=3 / weightb=1 / open_gop=0 / weightp=2 / keyint=250 / keyint_min=23 / scenecut=40 / intra_refresh=0 / rc_lookahead=60 / rc=crf / mbtree=1 / crf=18.0 / qcomp=0.60 / qpmin=10 / qpmax=69 / qpstep=4 / vbv_maxrate=40000 / vbv_bufsize=40000 / crf_max=0.0 / nal_hrd=none / ip_ratio=1.40 / aq=1:1.00
Язык : English
Аудио #1
Идентификатор : 2
Формат : AC-3
Формат/Информация : Audio Coding 3
Расширение режима : CM (complete main)
Идентификатор кодека : A_AC3
Продолжительность : 1 ч. 23 м.
Вид битрейта : Постоянный
Битрейт : 384 Кбит/сек
Каналы : 6 каналов
Расположение каналов : Front: L C R, Side: L R, LFE
Частота : 48,0 КГц
Битовая глубина : 16 бит
Метод сжатия : С потерями
Размер потока : 230 Мбайт (1%)
Язык : Russian
Аудио #2
Идентификатор : 3
Формат : AC-3
Формат/Информация : Audio Coding 3
Расширение режима : CM (complete main)
Идентификатор кодека : A_AC3
Продолжительность : 1 ч. 23 м.
Вид битрейта : Постоянный
Битрейт : 384 Кбит/сек
Каналы : 6 каналов
Расположение каналов : Front: L C R, Side: L R, LFE
Частота : 48,0 КГц
Битовая глубина : 16 бит
Метод сжатия : С потерями
Размер потока : 230 Мбайт (1%)
Язык : Russian
Аудио #3
Идентификатор : 4
Формат : AC-3
Формат/Информация : Audio Coding 3
Расширение режима : CM (complete main)
Идентификатор кодека : A_AC3
Продолжительность : 1 ч. 23 м.
Вид битрейта : Постоянный
Битрейт : 192 Кбит/сек
Каналы : 2 канала
Расположение каналов : Front: L R
Частота : 48,0 КГц
Битовая глубина : 16 бит
Метод сжатия : С потерями
Размер потока : 115 Мбайт (1%)
Язык : Russian
Аудио #4
Идентификатор : 5
Формат : AC-3
Формат/Информация : Audio Coding 3
Расширение режима : CM (complete main)
Идентификатор кодека : A_AC3
Продолжительность : 1 ч. 23 м.
Вид битрейта : Постоянный
Битрейт : 640 Кбит/сек
Каналы : 6 каналов
Расположение каналов : Front: L C R, Side: L R, LFE
Частота : 48,0 КГц
Битовая глубина : 16 бит
Метод сжатия : С потерями
Размер потока : 384 Мбайт (2%)
Язык : English

Скриншоты


Благодарности релизеру (2)

Торрент:

Статус:

Размер:

Зарегистрирован   [ 2014-04-01 12:10 ]

проверено

15.04 GB

 
 Мнение о фильме (2)





Фильм хороший,3D никакое,похоже на конвертацию.
 

это какой-то набор стереоскопического брака. разница в глубине сосведних сцен бывает чудовищной. обилие рассинхрона по фокусу - просто выворачивает глаза, плюс местами вертикальный параллакс..... жуть.... еще бы не переблеваться от такой стереоскопии в зале кинотеатра!!!!! :-( жалко добровольных мученников, кто такое досматривает до конца...