Торренты   
 
 

 

Рыба / Ходуны / Gyo / The Fish (2012) [BDRip, 1080p] Anamorph SideBySide / Горизонтальная анаморфная стереопара

Рейтинг 3D:
2 голосов
1.6
Рейтинг фильма:
2 голосов
1.6
 
Вы должны быть авторизированы,
чтобы ставить оценки


Рыба / Ходуны / Gyo / The Fish Год выхода: 2012
Страна: Япония
Жанр: аниме, ужасы, драма
Продолжительность: 01:10:08
Перевод: Любительский двухголосый закадровый (AniLibria / AniPower /AnimeReactor)
Режиссер: Хирао Такаюки / Hirao Takayuki
В ролях: Мираи Катаока, Takuma Negishi, Ami Taniguchi, Masami Saeki, Hidetaka Abe, Хироши Окадзаки, Mori Kaneko
Описание: Чтобы отпраздновать окончание университета, Каори и её две подруги отправились в короткий отпуск на Окинаву. В пляжном домике дяди жениха Каори, на посетителей нападает странная ходячая рыба. Тогда ещё ничего не подозревающие туристки и не представляли, какой ужасной чередой событий обернётся для них эта встреча…
Формат 3D: Anamorph SideBySide / Горизонтальная анаморфная стереопара
Порядок ракурсов: левый ракурс первый
Качество: BDRip
Контейнер: MKV
Видео кодек: x264
Аудио кодек: AC3
Видео: MPEG-4 AVC, 10 Мбит/с, 1920х1080, 23.976  кадр/с
Аудио 1: Русский / AC3 / 48 KHz / 6 ch / 640 Kbps (Любительский двухголосый закадровый от Lupin & Eladiel [AniLibria])
Аудио 2Русский / AC3 / 48 KHz / 2 ch / 192 Kbps (Любительский двухголосый закадровый от loster01 & Emeri [AniPower])
Аудио 3Русский / AC3 / 48 KHz / 2 ch / 192 Kbps (Любительский двухголосый закадровый от Henesy & Kasumi [AnimeReactor])
Аудио 4Japanese / AC3 / 48 KHz / 6 ch / 640 Kbps (Original)

Скриншоты


MediaInfo

Общее
Уникальный идентификатор : 202172093178496184989831025010107232746 (0x9818EDC6F6A4431C855471502F3C31EA)
Полное имя : D:\Download\Gyo 3D 2012 1080p halfSbS [3d-tracker.ru].mkv
Формат : Matroska
Версия формата : Version 2
Размер файла : 5,83 Гбайт
Продолжительность : 1 ч. 10 м.
Общий поток : 11,9 Мбит/сек
Название фильма : 3d-tracker.ru
Дата кодирования : UTC 2014-03-31 13:14:06
Программа кодирования : mkvmerge v4.0.0 ('The Stars were mine') сборка от Jun 6 2010 16:18:42
Библиотека кодирования : libebml v1.0.0 + libmatroska v1.0.0
Видео
Идентификатор : 1
Формат : AVC
Формат/Информация : Advanced Video Codec
Профиль формата : High@L4.1
Параметр CABAC формата : Да
Параметр ReFrames формата : 3 кадра
Идентификатор кодека : V_MPEG4/ISO/AVC
Продолжительность : 1 ч. 10 м.
Битрейт : 10,0 Мбит/сек
Ширина : 1920 пикселей
Высота : 1082 пикселя
Соотношение сторон : 16:9
Режим частоты кадров : Постоянный
Частота кадров : 23,976 кадра/сек
Цветовое пространство : YUV
Субдискретизация насыщенности : 4:2:0
Битовая глубина : 8 бит
Тип развёртки : Прогрессивная
Бит/(Пиксели*Кадры) : 0.201
Размер потока : 4,90 Гбайт (84%)
Заголовок : 3d-tracker.ru
Библиотека кодирования : x264 core
Язык : Japanese
Default : Да
Forced : Нет
Основные цвета : BT.709
Характеристики трансфера : BT.709
Коэффициенты матрицы : BT.709
Аудио #1
Идентификатор : 2
Формат : AC-3
Формат/Информация : Audio Coding 3
Расширение режима : CM (complete main)
Параметр Endianness формата : Big
Идентификатор кодека : A_AC3
Продолжительность : 1 ч. 10 м.
Вид битрейта : Постоянный
Битрейт : 640 Кбит/сек
Каналы : 6 каналов
Расположение каналов : Front: L C R, Side: L R, LFE
Частота : 48,0 КГц
Битовая глубина : 16 бит
Метод сжатия : С потерями
Размер потока : 321 Мбайт (5%)
Заголовок : 3d-tracker.ru
Язык : Russian
Default : Нет
Forced : Нет
Аудио #2
Идентификатор : 3
Формат : AC-3
Формат/Информация : Audio Coding 3
Расширение режима : CM (complete main)
Параметр Endianness формата : Big
Идентификатор кодека : A_AC3
Продолжительность : 1 ч. 10 м.
Вид битрейта : Постоянный
Битрейт : 192 Кбит/сек
Каналы : 2 канала
Расположение каналов : Front: L R
Частота : 48,0 КГц
Битовая глубина : 16 бит
Метод сжатия : С потерями
Размер потока : 96,3 Мбайт (2%)
Заголовок : 3d-tracker.ru
Язык : Russian
Default : Нет
Forced : Нет
Аудио #3
Идентификатор : 4
Формат : AC-3
Формат/Информация : Audio Coding 3
Расширение режима : CM (complete main)
Параметр Endianness формата : Big
Идентификатор кодека : A_AC3
Продолжительность : 1 ч. 10 м.
Вид битрейта : Постоянный
Битрейт : 192 Кбит/сек
Каналы : 2 канала
Расположение каналов : Front: L R
Частота : 48,0 КГц
Битовая глубина : 16 бит
Метод сжатия : С потерями
Размер потока : 96,3 Мбайт (2%)
Заголовок : 3d-tracker.ru
Язык : Russian
Default : Нет
Forced : Нет
Аудио #4
Идентификатор : 5
Формат : AC-3
Формат/Информация : Audio Coding 3
Расширение режима : CM (complete main)
Параметр Endianness формата : Big
Идентификатор кодека : A_AC3
Продолжительность : 1 ч. 10 м.
Вид битрейта : Постоянный
Битрейт : 640 Кбит/сек
Каналы : 6 каналов
Расположение каналов : Front: L C R, Side: L R, LFE
Частота : 48,0 КГц
Битовая глубина : 16 бит
Метод сжатия : С потерями
Размер потока : 321 Мбайт (5%)
Заголовок : 3d-tracker.ru
Язык : Japanese
Default : Нет
Forced : Нет
Меню
00:00:00.000 : en:(01)00:00:00:000
Комментарии:





опять фейки от IgorekShа попёрли (((((((
 

Анимированые скрины данного фейка.