Торренты   
 
 


Гepaкл: Haчaлo лeгeнды в 3Д / Тhе Lеgеnd оf Неrсulеs 3D (2014) [miniBDRip, 1080p] Anamorph SideBySide / Горизонтальная анаморфная стереопара [Чистый Звук]

Рейтинг 3D:
3 голосов
6.3
Рейтинг фильма:
3 голосов
5.0
 
Вы должны быть авторизированы,
чтобы ставить оценки


Геракл: Начало легенды в 3Д / The Legend of Hercules 3D
Год выпуска: 2014
Страна: США, Болгария
Жанр: Фэнтези, боевик
Продолжительность: 01:26:44
Перевод: Профессиональный (дублированный) [Чистый Звук]
Режиссер: Ренни Харлин
В ролях: Келлан Латс, Джая Уайсс, Скотт Эдкинс, Роксанна МакКи, Лайам Гэрриган, Лиам МакИнтайр, Раде Шербеджия, Джонатон Шек, Люк Ньюберри, Кеннет Крэнэм
Описание: 1200 г. до н. э. Древняя Греция. Прекрасная царица Алкмена попала под чары грозного бога Олимпа — Зевса и родила ему сына Геракла. При рождении ему было предсказано стать величайшим воином, который будет властвовать над народами и принесет мир и процветание своей стране. Но пока Геракл ничего не знает о своем предназначении. Он вырос прекрасным и сильным юношей. Он мечтает о любви принцессы Крита, Гебы, которая обещана в жены его брату. Когда Геракл узнает о своей великой миссии, он должен выбрать: сбежать со своей любовью или исполнить свое предназначение.
Формат 3D: Half SideBySide / Горизонтальная анаморфная стереопара
Порядок ракурсов: левый ракурс первый
Качество: miniBDRip
Контейнер: MKV
Видео кодек: x264
Аудио кодек: AC3
Видео: MPEG-4 AVC, 1997 Кбит/сек, 1920х1080, 23.976 кадр/с
Аудио: Русский, AC3, 192 Кбит/сек, 2ch, 48,0 КГц, 16 бит [Дубляж - Чистый Звук]

Скриншоты


MediaInfo

Общее
Уникальный идентификатор : 245277918442638600807250929944526873990 (0xB886CF0C5FC95C94B6CEB70E40446586)
Полное имя : D:\Download\The Legend Of Hercules 3D 2014 miniBDRip 1080p halfSbS (IgorekSh) [ДОЛОЙ РЕКЛАМУ!].mkv
Формат : Matroska
Версия формата : Version 2
Размер файла : 1,51 Гбайт
Продолжительность : 1 ч. 38 м.
Общий поток : 2190 Кбит/сек
Название фильма : ДОЛОЙ РЕКЛАМУ!
Дата кодирования : UTC 2014-04-07 15:45:58
Программа кодирования : mkvmerge v4.0.0 ('The Stars were mine') сборка от Jun 6 2010 16:18:42
Библиотека кодирования : libebml v1.0.0 + libmatroska v1.0.0
Видео
Идентификатор : 1
Формат : AVC
Формат/Информация : Advanced Video Codec
Профиль формата : High@L4.1
Параметр CABAC формата : Да
Параметр ReFrames формата : 4 кадра
Идентификатор кодека : V_MPEG4/ISO/AVC
Продолжительность : 1 ч. 38 м.
Битрейт : 1997 Кбит/сек
Ширина : 1920 пикселей
Высота : 1080 пикселей
Соотношение сторон : 16:9
Режим частоты кадров : Постоянный
Частота кадров : 23,976 кадра/сек
Цветовое пространство : YUV
Субдискретизация насыщенности : 4:2:0
Битовая глубина : 8 бит
Тип развёртки : Прогрессивная
Бит/(Пиксели*Кадры) : 0.040
Размер потока : 1,35 Гбайт (89%)
Заголовок : IgorekSh [ДОЛОЙ РЕКЛАМУ!]
Библиотека кодирования : x264 core 132 r2 76a5c3a
Настройки программы : cabac=1 / ref=4 / deblock=1:-1:-1 / analyse=0x3:0x133 / me=umh / subme=9 / psy=1 / psy_rd=1.00:0.15 / mixed_ref=1 / me_range=24 / chroma_me=1 / trellis=2 / 8x8dct=1 / cqm=0 / deadzone=21,11 / fast_pskip=0 / chroma_qp_offset=-3 / threads=36 / lookahead_threads=3 / sliced_threads=0 / nr=0 / decimate=1 / interlaced=0 / bluray_compat=0 / constrained_intra=0 / bframes=3 / b_pyramid=2 / b_adapt=2 / b_bias=0 / direct=3 / weightb=1 / open_gop=0 / weightp=2 / keyint=250 / keyint_min=23 / scenecut=40 / intra_refresh=0 / rc_lookahead=60 / rc=2pass / mbtree=1 / bitrate=1997 / ratetol=1.0 / qcomp=0.60 / qpmin=0 / qpmax=69 / qpstep=4 / cplxblur=20.0 / qblur=0.5 / vbv_maxrate=31250 / vbv_bufsize=31250 / nal_hrd=none / ip_ratio=1.40 / aq=1:1.00
Язык : English
Default : Нет
Forced : Нет
Основные цвета : BT.709
Коэффициенты матрицы : BT.709
Аудио
Идентификатор : 2
Формат : AC-3
Формат/Информация : Audio Coding 3
Расширение режима : CM (complete main)
Параметр Endianness формата : Big
Идентификатор кодека : A_AC3
Продолжительность : 1 ч. 38 м.
Вид битрейта : Постоянный
Битрейт : 192 Кбит/сек
Каналы : 2 канала
Расположение каналов : Front: L R
Частота : 48,0 КГц
Битовая глубина : 16 бит
Метод сжатия : С потерями
Размер потока : 135 Мбайт (9%)
Заголовок : ДОЛОЙ РЕКЛАМУ!
Язык : Russian
Default : Да
Forced : Нет
8.04.2014 Раздача обновлена. Звук с CamRip заменён на Чистый Звук.
Желающие, скачайте заново торрент-файл.
Благодарности релизеру (1)

Торрент:

Статус:

Размер:

Зарегистрирован   [ 2014-04-08 12:19 ]

проверено

1.51 GB

 
 Мнение о фильме (3)





Интересный формат - маленький размер. На телефоне LG 3D Max показывает неплохо, на большом телевизоре не очень. Сам фильм - так себе, посмотрел один раз и забыл.
 

Топик был перенесен из форума 3D Фильмы в форум Фильмы среднего качества

Dag13
 

8.04.2014 Раздача обновлена. Звук с CamRip заменён на Чистый Звук.
Желающие, скачайте заново торрент-файл.