Торренты   
 
 


Мстители в 3Д / The Avengers 3D (2012) [miniBDRip, 1080p] Anamorph SideBySide / Горизонтальная анаморфная стереопара

Рейтинг 3D:
6 голосов
5.4
Рейтинг фильма:
6 голосов
5.1
 
Вы должны быть авторизированы,
чтобы ставить оценки


Мстители в 3Д / The Avengers 3D
Год выпуска: 2012
Страна: США
Жанр: фантастика, фэнтези, боевик
Продолжительность: 02:22:54
Перевод: Профессиональный (дублированный) [Дубляж - BD 3D CEE] - русский и украинский
Режиссер: Джосс Уидон
В ролях: Роберт Дауни мл., Крис Эванс, Марк Руффало, Крис Хемсворт, Скарлетт Йоханссон, Джереми Реннер, Том Хиддлстон, Сэмюэл Л. Джексон, Кларк Грегг, Коби Смолдерс
Описание: Локи, сводный брат Тора, возвращается, и в этот раз он не один. Земля на грани порабощения, и только лучшие из лучших могут спасти человечество.
Ник Фьюри, глава международной организации Щ.И.Т., собирает выдающихся поборников справедливости и добра, чтобы отразить атаку. Под предводительством Капитана Америки Железный Человек, Тор, Невероятный Халк, Соколиный глаз и Чёрная Вдова вступают в войну с захватчиком.
Формат 3D: Anamorph SideBySide / Горизонтальная анаморфная стереопара
Порядок ракурсов: левый ракурс первый
Качество: miniBDRip
Контейнер: MKV
Видео кодек: x264
Аудио кодек: AC3
Видео: MPEG-4 AVC, 2203 Кбит/сек, 1920х1080, 23.976 кадр/с
Аудио 1: Русский, 48,0 КГц, AC3, 6 каналов, 384 Кбит/сек [Дубляж - BD 3D CEE]
Аудио 2: Українська, 48,0 КГц, AC3, 6 каналов, 384 Кбит/сек [Дубляж - BD 3D CEE]

Скриншоты


MediaInfo

Общее
Уникальный идентификатор : 250582451843612471161645073369311983080 (0xBC846CBCB39EEC42B6BB0388422BB5E8)
Полное имя : D:\Download\The Avengers 3D 2013 miniBDRip 1080p halfSbS (IgorekSh) [ДОЛОЙ РЕКЛАМУ!].mkv
Формат : Matroska
Версия формата : Version 2
Размер файла : 2,97 Гбайт
Продолжительность : 2 ч. 22 м.
Общий поток : 2971 Кбит/сек
Название фильма : Os.Vingadores.2012.3D.HSBS.1080p-WOLVERDON
Дата кодирования : UTC 2014-04-02 15:30:19
Программа кодирования : mkvmerge v4.0.0 ('The Stars were mine') сборка от Jun 6 2010 16:18:42
Библиотека кодирования : libebml v1.0.0 + libmatroska v1.0.0
Видео
Идентификатор : 1
Формат : AVC
Формат/Информация : Advanced Video Codec
Профиль формата : High@L4.0
Параметр CABAC формата : Да
Параметр ReFrames формата : 4 кадра
Идентификатор кодека : V_MPEG4/ISO/AVC
Продолжительность : 2 ч. 22 м.
Битрейт : 2203 Кбит/сек
Ширина : 1920 пикселей
Высота : 1080 пикселей
Соотношение сторон : 16:9
Режим частоты кадров : Постоянный
Частота кадров : 23,976 кадра/сек
Цветовое пространство : YUV
Субдискретизация насыщенности : 4:2:0
Битовая глубина : 8 бит
Тип развёртки : Прогрессивная
Бит/(Пиксели*Кадры) : 0.044
Размер потока : 2,14 Гбайт (72%)
Заголовок : IgorekSh [ДОЛОЙ РЕКЛАМУ!]
Библиотека кодирования : x264 core 125 r2200 999b753
Настройки программы : cabac=1 / ref=4 / deblock=1:0:0 / analyse=0x3:0x113 / me=umh / subme=8 / psy=1 / psy_rd=1.00:0.00 / mixed_ref=1 / me_range=16 / chroma_me=1 / trellis=1 / 8x8dct=1 / cqm=0 / deadzone=21,11 / fast_pskip=1 / chroma_qp_offset=-2 / threads=12 / lookahead_threads=2 / sliced_threads=0 / nr=0 / decimate=1 / interlaced=0 / bluray_compat=0 / constrained_intra=0 / bframes=3 / b_pyramid=2 / b_adapt=2 / b_bias=0 / direct=3 / weightb=1 / open_gop=0 / weightp=2 / keyint=240 / keyint_min=23 / scenecut=40 / intra_refresh=0 / rc_lookahead=50 / rc=2pass / mbtree=1 / bitrate=2203 / ratetol=1.0 / qcomp=0.60 / qpmin=0 / qpmax=69 / qpstep=4 / cplxblur=20.0 / qblur=0.5 / ip_ratio=1.40 / aq=1:1.00
Язык : English
Default : Нет
Forced : Нет
Аудио #1
Идентификатор : 2
Формат : AC-3
Формат/Информация : Audio Coding 3
Расширение режима : CM (complete main)
Параметр Endianness формата : Big
Идентификатор кодека : A_AC3
Продолжительность : 2 ч. 22 м.
Вид битрейта : Постоянный
Битрейт : 384 Кбит/сек
Каналы : 6 каналов
Расположение каналов : Front: L C R, Side: L R, LFE
Частота : 48,0 КГц
Битовая глубина : 16 бит
Метод сжатия : С потерями
Размер потока : 393 Мбайт (13%)
Заголовок : ДОЛОЙ РЕКЛАМУ!
Язык : Russian
Default : Нет
Forced : Нет
Аудио #2
Идентификатор : 3
Формат : AC-3
Формат/Информация : Audio Coding 3
Расширение режима : CM (complete main)
Параметр Endianness формата : Big
Идентификатор кодека : A_AC3
Продолжительность : 2 ч. 22 м.
Вид битрейта : Постоянный
Битрейт : 384 Кбит/сек
Каналы : 6 каналов
Расположение каналов : Front: L C R, Side: L R, LFE
Частота : 48,0 КГц
Битовая глубина : 16 бит
Метод сжатия : С потерями
Размер потока : 393 Мбайт (13%)
Заголовок : ДОЛОЙ РЕКЛАМУ!
Язык : Ukrainian
Default : Нет
Forced : Нет
Благодарности релизеру (6)

Торрент:

Статус:

Размер:

Зарегистрирован   [ 2014-04-04 16:48 ]

проверено

2.97 GB

 
 Мнение о фильме (12)





miniBDRip - это круто)) Интересно увидеть качество картинки.
 

miniBDRip - это круто)) Интересно увидеть качество картинки.
Да дело в том, что пока эти рипы в разделе со всеми, то они либо повторы, либо поглощённые в пользу б0льших рипов. Если всем будет нравится этот вид, может даже для раздел будет свой))
 

Свой раздел для таких рипов - вполне разумное решение.
 

Постер просто убойный :-D
"Месники в аццком замесе".
 

Странно, на соседнем трекере в 3д разделе невзлюбили формат miniBDRip
IgorekSh, благодаря Вам Рутрекер начинает превращаться в свалку, по крайней мере раздел 3D точно. Неужели кто-то говорит "спасибо" за подобные раздачи?
Вопрос остаётся открытым: Нужен ли формат miniBDRip как таковой?
 

Спасибо за раздачу. Поддерживаю, miniBDRip нужен.
 

Топик был перенесен из форума 3D Фильмы в форум Фильмы среднего качества

Dag13
 

Скачал,глянул,удалил-смотреть разве что на телефоне-на телике полный отстой.
 

Надо-бы не тока 3G, но и 3D-телефон прикупить для таких случаев))
 

Нужен ли формат miniBDRip как таковой?
Раз люди качают, значит нужен. А негатив будет всегда. Такова доля рипера.
А на рутрекер можно было и не пробовать лить, результат заранее ясен. Просто при таком разрешении параметр Бит/(Пиксели*Кадры) там никогда не пройдет.
 

Раз люди качают, значит нужен. А негатив будет всегда. Такова доля рипера.
А на рутрекер можно было и не пробовать лить, результат заранее ясен. Просто при таком разрешении параметр Бит/(Пиксели*Кадры) там никогда не пройдет.
47 ронинов уже почти 2 недели лежит без проверки, кому надо, я думаю, уже скачали. Не все знают про тематические 3д трекеры как этот, торрент3д.нет и другие.
Размер: 1.98 GB | Зарегистрирован: 13 дней
 

Я - против негатива!)) Собственно, я не имею ничего против и не имею на это право! Хорошо, что человек выложил, и это кому-то нужно.