Торренты   
 
 

 

Геракл: Начало легенды / The Legend of Hercules (Ренни Харлин) [2013 г., Anamorph OverUnder]

Рейтинг 3D:
123 голосов
7.8
Рейтинг фильма:
133 голосов
6.5
 
Вы должны быть авторизированы,
чтобы ставить оценки


Геракл: Начало легенды / The Legend of Hercules
Год выпуска: 2013
Страна: США, Болгария
Жанр: боевик, фэнтези
Продолжительность: 01:38:38
Перевод: Профессиональный (полное дублирование)
Режиссер: Ренни Харлин
В ролях: Келлан Латс, Джая Уайсс, Скотт Эдкинс, Роксанна МакКи, Лайам Гэрриган, Лиам МакИнтайр, Раде Шербеджия, Джонатон Шек, Люк Ньюберри, Кеннет Крэнэм
Описание: 1200 г. до н. э. Древняя Греция. Прекрасная царица Алкмена попала под чары грозного бога Олимпа — Зевса и родила ему сына Геракла. При рождении ему было предсказано стать величайшим воином, который будет властвовать над народами и принесет мир и процветание своей стране. Но пока Геракл ничего не знает о своем предназначении. Он вырос прекрасным и сильным юношей. Он мечтает о любви принцессы Крита, Гебы, которая обещана в жены его брату. Когда Геракл узнает о своей великой миссии, он должен выбрать: сбежать со своей любовью или исполнить свое предназначение.
Качество: BDrip
Контейнер: MKV
Формат 3D: Anamorph OverUnder / Вертикальная анаморфная стереопара
Порядок ракурсов: левый ракурс первый
Видео кодек: x264
Аудио кодек: AC-3
Видео: AVC, High@L4.1, 1920х1080, 23,976 кадра/сек, 8131 Кбит/сек
Аудио:
#1 - Русский / AC3 / 48 KHz / 5.1 ch / 640 Kbps (Дубляж)
#2 - Английский / AC3 / 48 KHz / 5.1 ch / 640 Kbps (Original)
Субтитры: английские

Скриншоты

Media Info

Общее
Уникальный идентификатор : 236429790511116825991918866868861903517 (0xB1DEB8A90561A0518A0BF54F7C1FA29D)
Полное имя : H:\Source\TheLegendOfHercules.3D.2013.BDrip.Half.OU.x264.AC3..(itsamna).mkv
Формат : Matroska
Версия формата : Version 4 / Version 2
Размер файла : 6,61 Гбайт
Продолжительность : 1 ч. 38 м.
Общий поток : 9593 Кбит/сек
Название фильма : The Legend of Hercules
Дата кодирования : UTC 2014-09-11 15:57:47
Программа кодирования : mkvmerge v6.8.0 ('Theme for Great Cities') 32bit built on Mar 2 2014 21:27:07
Библиотека кодирования : libebml v1.3.0 + libmatroska v1.4.1
Видео
Идентификатор : 1
Формат : AVC
Формат/Информация : Advanced Video Codec
Профиль формата : High@L4.1
Параметр CABAC формата : Да
Параметр ReFrames формата : 4 кадра
Идентификатор кодека : V_MPEG4/ISO/AVC
Продолжительность : 1 ч. 38 м.
Битрейт : 8122 Кбит/сек
Ширина : 1920 пикселей
Высота : 1080 пикселей
Соотношение сторон : 16:9
Режим частоты кадров : Постоянный
Частота кадров : 23,976 кадра/сек
Цветовое пространство : YUV
Субдискретизация насыщенности : 4:2:0
Битовая глубина : 8 бит
Тип развёртки : Прогрессивная
Бит/(Пиксели*Кадры) : 0.163
Размер потока : 5,60 Гбайт (85%)
Библиотека кодирования : x264 core 130 r2273 b3065e6
Настройки программы : cabac=1 / ref=4 / deblock=1:-3:-3 / analyse=0x3:0x133 / me=umh / subme=10 / psy=1 / psy_rd=1.00:0.15 / mixed_ref=1 / me_range=32 / chroma_me=1 / trellis=2 / 8x8dct=1 / cqm=0 / deadzone=21,11 / fast_pskip=0 / chroma_qp_offset=-3 / threads=12 / lookahead_threads=2 / sliced_threads=0 / nr=0 / decimate=1 / interlaced=0 / bluray_compat=0 / constrained_intra=0 / bframes=8 / b_pyramid=2 / b_adapt=2 / b_bias=0 / direct=3 / weightb=1 / open_gop=0 / weightp=2 / keyint=250 / keyint_min=23 / scenecut=40 / intra_refresh=0 / rc_lookahead=60 / rc=crf / mbtree=1 / crf=18.0 / qcomp=0.60 / qpmin=0 / qpmax=69 / qpstep=4 / vbv_maxrate=50000 / vbv_bufsize=62500 / crf_max=0.0 / nal_hrd=none / ip_ratio=1.40 / aq=1:0.90
Default : Да
Forced : Нет
Аудио #1
Идентификатор : 2
Формат : AC-3
Формат/Информация : Audio Coding 3
Расширение режима : CM (complete main)
Параметр Endianness формата : Big
Идентификатор кодека : A_AC3
Продолжительность : 1 ч. 38 м.
Вид битрейта : Постоянный
Битрейт : 640 Кбит/сек
Каналы : 6 каналов
Расположение каналов : Front: L C R, Side: L R, LFE
Частота : 48,0 КГц
Битовая глубина : 16 бит
Метод сжатия : С потерями
Размер потока : 452 Мбайт (7%)
Заголовок : Дубляж - BD Rus
Язык : Russian
Default : Да
Forced : Нет
Аудио #2
Идентификатор : 3
Формат : AC-3
Формат/Информация : Audio Coding 3
Расширение режима : CM (complete main)
Параметр Endianness формата : Big
Идентификатор кодека : A_AC3
Продолжительность : 1 ч. 38 м.
Вид битрейта : Постоянный
Битрейт : 640 Кбит/сек
Каналы : 6 каналов
Расположение каналов : Front: L C R, Side: L R, LFE
Частота : 48,0 КГц
Битовая глубина : 16 бит
Метод сжатия : С потерями
Размер потока : 452 Мбайт (7%)
Язык : English
Default : Нет
Forced : Нет
Текст
Идентификатор : 4
Формат : UTF-8
Идентификатор кодека : S_TEXT/UTF8
Идентификатор кодека/Информация : UTF-8 Plain Text
Язык : English
Default : Нет
Forced : Нет
Меню
00:00:00.000 : :1
00:14:07.221 : :2
00:36:13.546 : :3
00:58:32.676 : :4
01:18:37.630 : :5
01:29:12.806 : :6
--Релиз группы:

Проверено на встроенном плейере ТВ LG 42LW4500
--11.09.2014. Релиз обновлён - русская дорога заменена на лицензию.
Желающие, скачайте заново торрент-файл.
Остальные раздачи этого фильма (3)
Благодарности релизеру (26)

Торрент:

Статус:

Размер:

Зарегистрирован   [ 2014-09-11 20:15 ]

проверено

6.61 GB

 
 Мнение о фильме (62)

1, 2, 3, 4  След.






Фильма отстой, не знал что в 3д будет, качал в 2Д-прокрутил-удалил...за 3Д спасибо, но качать не буду, и тем кто качает из-за фильма, а не из-за объема (как я качал все подряд как только ТВ купил-типа диковинка) тратить время не советую.
 

Какое унылое пафосное фуфло! Если бы не графика и спецэффекты, можно было бы легко спутать с "костюмными" историческими фильмами 2-3 категории, которые Голливуд штамповал в 50-60 годы прошлого века. А жаль, раньше у Ренни Харлина и хорошие фильмы получались.
Смотреть можно только ради 3D.
 

Блин, как же жаль Харлина - подкосили его провалы фильмов 90-х с Джиной Дэвис (а лично мне они очень нравятся).
 

amadeus1979, Мне вот тоже нравится и Остров головорезов, и Долгий поцелуй на ночь.))
 

Джина Дэвис крутая!
 

Долгий поцелуй на ночь.- Ваще бомба в своё время был. А Геракл всем поклонникам сериала Спартак посвящается! Нормальное мясо!!!
 

не геркал а педорино-горе!фильм высер ослик иа!
 

На эту муть тратить время не стоит.
 

3д нормально. Звук слушать можно.
 
Виталий Цыганов Профиль 06-Апр-2014 13:18

3D понравилось!!! Сюжет на 3.
 

сам фильм ни о чем ! можно смотреть поединки , остальное смело прокручивать ! 3д хорошее .
 
евгения мурашко Профиль 07-Апр-2014 10:46

Спасибо!!!Отличный фильм!3д хорошее.
 

Коммерческий фильм,3д умеренное с чёрными полосами сверху и снизу.
 

Мда, фильм слабоватый, но 3д порадовало.
 

А мне фильм понравился, зD хорошее, правда я смотрю через проектор, а вот звук плохой..
 

Да, из последних релизов,выделяется качеством 3D.Очень понравилось.Спасибо.Ну а звук, это дело времени.
 

Еще один фильм из категории посмотрел и забыл.3D смотрибельно. Релизеру спс за труды.
 

Нормальный фильм-смотреть можно -намного лучше чем про рыбок или волейбол на пляже-спасибо за работу.
 

что-то не очень впечетляющее
 

Спасибо,фильм понравился.3Д очень понравилось.Звук для телика нормален.Фильм стоит посмотреть!
 

Страница 1 из 4

1, 2, 3, 4  След.