Торренты   
 
 

 

Грань будущего. Трейлер / Edge of Tomorrow [2014 г., OverUnder]

Рейтинг 3D:
12 голосов
7.0
Рейтинг фильма:
13 голосов
5.8
 
Вы должны быть авторизированы,
чтобы ставить оценки


Грань будущего в 3Д / Edge of Tomorrow
Год выпуска: 2014
Страна: США
Жанр: фантастика, боевик
Продолжительность: 00:02:35
Описание: История разворачивается в недалеком будущем, когда похожая на рой раса инопланетян, названных мимиками, совершает безжалостное нападение на Землю, стерев в пыль крупные города и уничтожив миллионы жизней. Армии Земли объединят силы, чтобы вступить в последний бой с полчищами инопланетян, зная, что второго шанса у них не будет....
Формат 3D: OverUnder
Видео: MKV\AVC\1920х1080\24fps\7 594 Kbps

Скриншоты





Media Info

Format : Matroska
Format version : Version 2
File size : 141 MiB
Duration : 2mn 35s
Overall bit rate : 7 594 Kbps
Movie name : UNICODE [EDGE-O~1.MKV]
Encoded date : UTC 2014-04-06_23-30-42
Writing application : eRightSoft
Writing library : eRightSoft
ARTIST : created.with.SUPER(C).v2013.bld.57+Recorder
Video
ID : 1
Format : AVC
Format/Info : Advanced Video Codec
Format profile : Main@L2.0
Format settings, CABAC : Yes
Format settings, ReFrames : 4 frames
Codec ID : V_MPEG4/ISO/AVC
Duration : 2mn 36s
Bit rate : 6 995 Kbps
Width : 1 920 pixels
Height : 1 080 pixels
Display aspect ratio : 16:9
Frame rate mode : Constant
Frame rate : 24.000 fps
Color space : YUV
Chroma subsampling : 4:2:0
Bit depth : 8 bits
Scan type : Progressive
Bits/(Pixel*Frame) : 0.141
Stream size : 130 MiB (92%)
Writing library : SUPER(C).2013
Language : Russian
Default : Yes
Forced : No
Audio
ID : 2
Format : AC-3
Format/Info : Audio Coding 3
Mode extension : CM (complete main)
Format settings, Endianness : Big
Codec ID : A_AC3
Duration : 2mn 35s
Bit rate mode : Constant
Bit rate : 448 Kbps
Channel(s) : 6 channels
Channel positions : Front: L C R, Side: L R, LFE
Sampling rate : 48.0 KHz
Bit depth : 16 bits
Compression mode : Lossy
Stream size : 8.33 MiB (6%)
Language : Russian
Благодарности релизеру (5)

Торрент:

Статус:

Размер:

Зарегистрирован   [ 2014-04-07 01:54 ]

проверено

141 MB