Торренты   
 
 

 

Гepaкл: Haчaлo лeгeнды / Тhе Lеgеnd оf Неrсulеs (Ренни Харлин / Renny Harlin) [2013 г.,Full OverUnder]

Рейтинг 3D:
19 голосов
8.1
Рейтинг фильма:
20 голосов
6.7
 
Вы должны быть авторизированы,
чтобы ставить оценки


Геракл: Начало легенды / The Legend of Hercules
Год выпуска: 2013
Страна: США, Болгария
Студия: Lionsgate, Summit Entertainment, Millennium Films,
Жанр: Боевик, Фэнтези
Продолжительность: 1:38:39
Перевод: Профессиональный дублированный (Лицензия)
Русские субтитры: нет
Режиссер на русском: Ренни Харлин
Режиссер на английском: Renny Harlin
В ролях: Келлан Латс, Гайя Вайсс, Скотт Эдкинс, Роксанна МакКи, Лайам Гэрриган, Лиам МакИнтайр, Раде Шербеджия, Джонатон Шек, Люк Ньюберри, Кеннет Крэнэм
Описание: 1200 г. до н. э. Древняя Греция. Прекрасная царица Алкмена попала под чары грозного бога Олимпа — Зевса и родила ему сына Геракла. При рождении ему было предсказано стать величайшим воином, который будет властвовать над народами и принесет мир и процветание своей стране. Но пока Геракл ничего не знает о своем предназначении. Он вырос прекрасным и сильным юношей. Он мечтает о любви принцессы Крита, Гебы, которая обещана в жены его брату. Когда Геракл узнает о своей великой миссии, он должен выбрать: сбежать со своей любовью или исполнить свое предназначение.
Сэмпл: http://www.sendspace.com/file/djrzzt
Качество: BDrip
Контейнер: MKV
Формат 3D: OverUnder / Вертикальная стереопара
Порядок ракурсов: левый ракурс первый
Видео кодек: x264
Аудио кодек: AC3
Видео: AVC / High@L5.0 / 23,976 fps / 1920х1600 / 16,6 Мбит/сек
Аудио: Русский / AC3 / 48 KHz / 5.1 ch / 640 Kbps (Лицензия)
Аудио 2: Английский / AC3 / 48 KHz / 5.1 ch / 640 Kbps
Релиз группы: ВНИМАНИЕ ! На встроенных ТВ-плеерах работать не будет!!!
Железные плееры на которых воспроизводятся полные стереопары:Popcorn C-200 , Dune HD Smart D1 , Dune HD DUO , Dune HD Smart H1 , Dune HD Smart B1 , Dune HD Max , Dune HD TV-303D , Dune HD Base 3D
15.09.2014. Релиз обновлён - русская дорога заменена на лицензию.
Желающие, скачайте заново торрент-файл.

MediaInfo

Общее
Уникальный идентификатор : 204767840283262356122330014755526359306 (0x9A0CD9FD893D7DDFAA83D6528BF1390A)
Полное имя : E:\закачки\Тhе Lеgеnd оf Неrсulеs.Rip by SeRoGa00.mkv
Формат : Matroska
Версия формата : Version 2
Размер файла : 12,5 Гбайт
Продолжительность : 1 ч. 38 м.
Общий поток : 18,2 Мбит/сек
Дата кодирования : UTC 2014-09-15 12:59:15
Программа кодирования : mkvmerge v3.4.0 ('Rapunzel') сборка от May 15 2010 09:38:20
Библиотека кодирования : libebml v0.8.0 + libmatroska v0.9.0
Видео
Идентификатор : 1
Формат : AVC
Формат/Информация : Advanced Video Codec
Профиль формата : High@L5.0
Параметр CABAC формата : Да
Параметр ReFrames формата : 4 кадра
Идентификатор кодека : V_MPEG4/ISO/AVC
Продолжительность : 1 ч. 38 м.
Битрейт : 16,6 Мбит/сек
Ширина : 1920 пикселей
Высота : 1600 пикселей
Соотношение сторон : 1,200
Частота кадров : 23,976 кадра/сек
Цветовое пространство : YUV
Субдискретизация насыщенности : 4:2:0
Битовая глубина : 8 бит
Тип развёртки : Прогрессивная
Бит/(Пиксели*Кадры) : 0.225
Размер потока : 11,4 Гбайт (91%)
Заголовок : Rip by SeRoGa00
Библиотека кодирования : x264 core 138 r2356 a1d3d17
Настройки программы : cabac=1 / ref=4 / deblock=1:-3:-3 / analyse=0x3:0x113 / me=umh / subme=9 / psy=1 / psy_rd=1.00:0.15 / mixed_ref=1 / me_range=24 / chroma_me=1 / trellis=2 / 8x8dct=1 / cqm=0 / deadzone=21,11 / fast_pskip=1 / chroma_qp_offset=-3 / threads=9 / lookahead_threads=1 / sliced_threads=0 / nr=0 / decimate=1 / interlaced=0 / bluray_compat=0 / constrained_intra=0 / bframes=8 / b_pyramid=2 / b_adapt=2 / b_bias=0 / direct=3 / weightb=1 / open_gop=0 / weightp=2 / keyint=250 / keyint_min=23 / scenecut=40 / intra_refresh=0 / rc_lookahead=60 / rc=crf / mbtree=1 / crf=18.0 / qcomp=0.60 / qpmin=10 / qpmax=69 / qpstep=4 / vbv_maxrate=40000 / vbv_bufsize=40000 / crf_max=0.0 / nal_hrd=none / ip_ratio=1.40 / aq=1:1.00
Язык : English
Аудио #1
Идентификатор : 2
Формат : AC-3
Формат/Информация : Audio Coding 3
Расширение режима : CM (complete main)
Идентификатор кодека : A_AC3
Продолжительность : 1 ч. 38 м.
Вид битрейта : Постоянный
Битрейт : 640 Кбит/сек
Каналы : 6 каналов
Расположение каналов : Front: L C R, Side: L R, LFE
Частота : 48,0 КГц
Битовая глубина : 16 бит
Метод сжатия : С потерями
Размер потока : 452 Мбайт (4%)
Язык : Russian
Аудио #2
Идентификатор : 3
Формат : AC-3
Формат/Информация : Audio Coding 3
Расширение режима : CM (complete main)
Идентификатор кодека : A_AC3
Продолжительность : 1 ч. 38 м.
Вид битрейта : Постоянный
Битрейт : 640 Кбит/сек
Каналы : 6 каналов
Расположение каналов : Front: L C R, Side: L R, LFE
Частота : 48,0 КГц
Битовая глубина : 16 бит
Метод сжатия : С потерями
Размер потока : 452 Мбайт (4%)
Язык : English

Скриншоты


Благодарности релизеру (16)

Торрент:

Статус:

Размер:

Зарегистрирован   [ 2014-09-15 17:29 ]

проверено

12.54 GB

 
 Мнение о фильме (7)





Фильм - пойдет под пиво))). 3D - замечательно, очень красиво, порадовало. Сказалось то, что в основном посторено на 3d графике, спецэффектах. Звук - ужас. Английский по-моему, 5.1, а русский дубляж - фу!!! - смахивает на моно!
 

качество 3D приятно порадовало!сам фильм без намека на оригинальность, НО посмотреть стоит однозначно!
 

3д нормально так,копья и стрелы в меня летели)) как сам фильм,то я думаю, что за такие деньги можно было и получше сценариста найти, к тому же у меня по непонятной причине экран был с жуткими полосами, короче если б не пиво.....
 
Алексей "51" Профиль 12-Апр-2014 02:52

3d норм
 

На эту муть тратить время не стоит.
 

С трудом досмотрел до конца-и в корзину.Заливальщику спасибо
 

С дюны не распознавался 3D.