Торренты   
 
 

 

Реальная белка в 3Д / The Nut Job 3D (2013) [BDRip, 1080p] Anamorph SideBySide / Горизонтальная анаморфная стереопара

Рейтинг 3D:
60 голосов
7.2
Рейтинг фильма:
61 голосов
7.2
 
Вы должны быть авторизированы,
чтобы ставить оценки


Реальная белка / The Nut Job
«Береги свои орешки!»
Год выхода: 2013
Жанр: мультфильм, комедия, приключения, семейный
Страна: Канада, Корея Южная, США
Производство: Gulfstream Pictures, Red Rover International, ToonBox Entertainment
Продолжительность: 01:21:56
Перевод: Профессиональный многоголосый [BaibaKo]
Режиссер: Питер Лепениотис
Роли озвучивали: Уилл Арнетт, Брендан Фрейзер, Лиам Нисон, Кэтрин Хайгл, Стивен Лэнг, Майя Рудольф, Джефф Данэм, Гэбриел Иглесиас, Сара Гадон, Джеймс Ранкин
Описание: Пытаясь выжить в городе, неразлучные друзья — белка Злюк и крысёнок Бадди натыкаются на магазин, до краёв набитый их любимым лакомством — орехами. Чувствуя, что «мечты сбываются», приятели планируют величайшее ограбление в истории грызунов. Но тут совсем некстати нарисовались бедные родственники из парка — прямо 13 друзей арахиса! Однако им всем невдомёк, что магазин орехов — лишь прикрытие для банды грабителей, которые намерены вырыть туннель под банк и подменить мешки с деньгами на мешки с теми самыми орехами.
Премьера (мир): 17 января 2014
Премьера (РФ): 17 апреля 2014, «Двадцатый Век Фокс СНГ», «Каравелла DDC» 3D
Премьера (Укр.): 17 апреля 2014, «Каравелла DDC Украина» 3D
Формат 3D: Anamorph SideBySide / Горизонтальная анаморфная стереопара
Порядок ракурсов: левый ракурс первый
Качество: BDRip
Контейнер: MKV
Видео кодек: x264
Аудио кодек: AC3
Видео: MPEG-4 AVC, 8698 Кбит/сек, 1920х1080, 23,976 кадр/с
Аудио: Русский / AC3 / 48 KHz / 6 ch / 448 Kbps (Профессиональный многоголосый [BaibaKo])

Скриншоты






MediaInfo

Общее
Уникальный идентификатор : 218535019714213775614104982762455103599 (0xA46850579683547083B6C7AB5CE4F86F)
Полное имя : D:\Download\The Nut Job 3D 2013 BDRip 1080p halfSbS [долой рекламу].mkv
Формат : Matroska
Версия формата : Version 2
Размер файла : 5,60 Гбайт
Продолжительность : 1 ч. 25 м.
Общий поток : 9332 Кбит/сек
Название фильма : Долой рекламу
Дата кодирования : UTC 2014-04-07 09:56:36
Программа кодирования : mkvmerge v4.0.0 ('The Stars were mine') сборка от Jun 6 2010 16:18:42
Библиотека кодирования : libebml v1.0.0 + libmatroska v1.0.0
Видео
Идентификатор : 1
Формат : AVC
Формат/Информация : Advanced Video Codec
Профиль формата : High@L4.1
MultiView_Count : 2
MultiView_Layout : Right Eye
Параметр CABAC формата : Да
Параметр ReFrames формата : 2 кадра
Идентификатор кодека : V_MPEG4/ISO/AVC
Продолжительность : 1 ч. 25 м.
Битрейт : 8698 Кбит/сек
Ширина : 1920 пикселей
Высота : 1080 пикселей
Соотношение сторон : 16:9
Режим частоты кадров : Постоянный
Частота кадров : 23,976 кадра/сек
Цветовое пространство : YUV
Субдискретизация насыщенности : 4:2:0
Битовая глубина : 8 бит
Тип развёртки : Прогрессивная
Бит/(Пиксели*Кадры) : 0.175
Размер потока : 5,22 Гбайт (93%)
Заголовок : Долой рекламу
Библиотека кодирования : x264 core
Язык : English
Default : Нет
Forced : Нет
Основные цвета : BT.709
Характеристики трансфера : BT.709
Коэффициенты матрицы : BT.709
Аудио
Идентификатор : 2
Формат : AC-3
Формат/Информация : Audio Coding 3
Расширение режима : CM (complete main)
Параметр Endianness формата : Big
Идентификатор кодека : A_AC3
Продолжительность : 1 ч. 25 м.
Вид битрейта : Постоянный
Битрейт : 448 Кбит/сек
Каналы : 6 каналов
Расположение каналов : Front: L C R, Side: L R, LFE
Частота : 48,0 КГц
Битовая глубина : 16 бит
Метод сжатия : С потерями
Размер потока : 275 Мбайт (5%)
Заголовок : Долой рекламу
Язык : Russian
Default : Нет
Forced : Нет
Меню
00:00:00.000 : en:00:00:00.000
00:02:35.614 : en:00:02:35.614
00:05:24.574 : en:00:05:24.574
00:09:57.430 : en:00:09:57.430
00:14:58.481 : en:00:14:58.481
00:17:30.091 : en:00:17:30.091
00:22:18.837 : en:00:22:18.837
00:27:58.677 : en:00:27:58.677
00:32:01.169 : en:00:32:01.169
00:37:50.435 : en:00:37:50.435
00:40:19.042 : en:00:40:19.042
00:44:56.611 : en:00:44:56.611
00:48:14.266 : en:00:48:14.266
00:53:17.528 : en:00:53:17.528
00:58:14.991 : en:00:58:14.991
01:03:04.072 : en:01:03:04.072
01:08:48.624 : en:01:08:48.624
01:13:57.183 : en:01:13:57.183
01:19:32.059 : en:01:19:32.059
01:23:11.737 : en:01:23:11.737
Остальные раздачи этого фильма (4)
Благодарности релизеру (17)

Торрент:

Статус:

Размер:

Зарегистрирован   [ 2014-04-07 17:20 ]

проверено

5.6 GB

 
 Мнение о фильме (18)





Забавный прикольный мультик, 3D неглубокое, но есть пара-тройка вылетов. Рекомендую посмотреть, включая финальные титры. По-моему, к нему еще есть и тизер прикольный, раньше кто-то выкладывал.
 

Хороший мультик, хорошее 3Д, хороший звук. Всем смотреть. Благодарю за раздачу.
 

3D не самое лучшее, а вот сам мультик замечательный! Понравился и мне и дочке! Рекомендую скачать.
 

Классный мультик, всем понравился
 

прикольный и 3д в норме
 

Скучновато. Через 10 минут выключил.
 

на плазме 120 см разницы что мини что обычный рип нет никакой. так что спасибо за мини
 

Полное дерьмо. Простите за сравнение.
 

Мультфильм понравился. Спасибо.
 

Отличный мультик. С ребенком посмотрел с удовольствием. 3д хорошее и придает картинке более привлекательный вид.
 

Хороший мульт. Спасибо.
 
Виталий Цыганов Профиль 26-Май-2014 22:40

Смотрел в 2д понравился.Скачаю поставлю оценку 3д.Спасибо)))
 

Мульт отличный, глубина тоже есть, а вот с вылетами беда, их нет там где они явно просятся.
 

отличный мультик, 3D очень достойное, не знаю на чем смотрела ИринаХ - но на samsung 8007 отлично.
 

Классный мульт спасибо
 

с профессиональным переводом отличный мульт.но мало вылетов!
 
Андре баталов Профиль 14-Июн-2014 11:41

Прикольный и 3д в норме
 

Мульт - Бомба