Торренты   
 
 

 

Юлия Икс в 3Д / Julia X 3D (2011) [BDRip, 1080p] Anamorph SideBySide / Горизонтальная анаморфная стереопара

Рейтинг 3D:
32 голосов
7.6
Рейтинг фильма:
31 голосов
5.2
 
Вы должны быть авторизированы,
чтобы ставить оценки


Юлия Икс в 3Д / Julia X 3D
Год выпуска: 2011
Страна: США
Жанр: ужасы, триллер, комедия
Продолжительность: 01:32:00
Перевод: Профессиональный (многоголосый закадровый) [online movies]
Режиссер: П.Дж. Петтьетте / P.J. Pettiette
В ролях: Алисия Ли Уиллис, Джоэль Мур, Винг Реймз, Саксон Шарбино, Грегг Браззел, Мэг Рэйнс, Kasi Scarbrought Corley, Сара Дункан.
Описание: Неуловимый серийный маньяк орудует в городе, знакомится со своими будущими жертвами через интернет. После встречается, похищает, пытает, клеймит их по алфавиту, убивает и избавляется от тел разным способом, при этом постоянно слушая в плеере любимого исполнителя. И вот она — очередная жертва, все как обычно: знакомство, похищение, небольшие пытки, клеймо, но… Но новенькая девочка оказалась не такой уж простушкой и умудряется сбежать от него, при это не раз побив его и давая постоянно отпор. Так кто же она жертва или?
Формат 3D: Anamorph SideBySide / Горизонтальная анаморфная стереопара
Порядок ракурсов: левый ракурс первый
Качество: BDRip
Контейнер: MKV
Видео кодек: x264
Аудио кодек: AC3
Видео: MPEG-4 AVC, 11,5 Мбит/сек, 1920х1080, 23,976 кадр/с
Аудио: Русский / AC3 / 48 KHz / 2 канала / 192 Кбит/сек (Профессиональный многоголосый [online movies])

Скриншоты




MediaInfo

Общее
Уникальный идентификатор : 242767263567830569887286892193048482903 (0xB6A34634BD0468DCB10C81465A98D457)
Полное имя : D:\Download\Julia X 3D 2011 BDRip 1080p halfSbS .mkv
Формат : Matroska
Версия формата : Version 2
Размер файла : 7,68 Гбайт
Продолжительность : 1 ч. 31 м.
Общий поток : 11,9 Мбит/сек
Дата кодирования : UTC 2014-04-07 13:27:22
Программа кодирования : mkvmerge v4.0.0 ('The Stars were mine') сборка от Jun 6 2010 16:18:42
Библиотека кодирования : libebml v1.0.0 + libmatroska v1.0.0
Видео
Идентификатор : 1
Формат : AVC
Формат/Информация : Advanced Video Codec
Профиль формата : High@L4.1
Параметр CABAC формата : Да
Параметр ReFrames формата : 2 кадра
Идентификатор кодека : V_MPEG4/ISO/AVC
Продолжительность : 1 ч. 31 м.
Битрейт : 11,5 Мбит/сек
Ширина : 1920 пикселей
Высота : 1080 пикселей
Соотношение сторон : 16:9
Режим частоты кадров : Постоянный
Частота кадров : 23,976 кадра/сек
Цветовое пространство : YUV
Субдискретизация насыщенности : 4:2:0
Битовая глубина : 8 бит
Тип развёртки : Прогрессивная
Бит/(Пиксели*Кадры) : 0.232
Размер потока : 7,40 Гбайт (96%)
Библиотека кодирования : x264 core
Язык : English
Default : Нет
Forced : Нет
Основные цвета : BT.709
Характеристики трансфера : BT.709
Коэффициенты матрицы : BT.709
Аудио
Идентификатор : 2
Формат : AC-3
Формат/Информация : Audio Coding 3
Расширение режима : CM (complete main)
Параметр Endianness формата : Big
Идентификатор кодека : A_AC3
Продолжительность : 1 ч. 31 м.
Вид битрейта : Постоянный
Битрейт : 192 Кбит/сек
Каналы : 2 канала
Расположение каналов : Front: L R
Частота : 48,0 КГц
Битовая глубина : 16 бит
Метод сжатия : С потерями
Размер потока : 126 Мбайт (2%)
Язык : Russian
Default : Нет
Forced : Да
Меню
00:00:00.000 : en:00:00:00.000
00:08:47.819 : en:00:08:47.819
00:17:22.333 : en:00:17:22.333
00:22:38.899 : en:00:22:38.899
00:31:29.596 : en:00:31:29.596
00:40:31.304 : en:00:40:31.304
00:46:01.717 : en:00:46:01.717
00:52:41.450 : en:00:52:41.450
00:59:38.950 : en:00:59:38.950
01:09:19.781 : en:01:09:19.781
01:15:26.230 : en:01:15:26.230
01:22:01.125 : en:01:22:01.125
Остальные раздачи этого фильма (2)
Благодарности релизеру (5)

Торрент:

Статус:

Размер:

Зарегистрирован   [ 2014-04-08 09:25 ]

проверено

7.68 GB

 
 Мнение о фильме (16)





...филЬма для идиотов, которым нравяцца брызги крови на экране и вЁдрами на полу.Даже 3D эффекты не сглаживают всю мерзость сего "творения". Смортел кусками и сделал "delete"!
 

острый комментарий - надо глянуть! ведь ребятки из VirusProject недавно отлично перевели бразильский "2 Зайца" - такой, тоже, не оставляющий равнодушными никого, но очень интересный фильм
 

тупая дешёвая комедия
 

Не стоит смотреть
 

Насчитал 5 вылетов ! печально :(
 
ВАСИЛИЙ СОЛОМОН Профиль 10-Ноя-2012 20:16

Очень хороший фильм. Мужику реально повезло, что таких девчонок встретил. Но фильм не для всех, кто не в теме, тот не поймет...
 

смотрел в 2д, понравилось. жалею что не дождался 3д, т.к. повторно такое смотреть уже не интересно. за сюжет и игру актеров 8 точно.
 

Мне тоже фильм понравился! Не шедевр, но и не трэшак точно! Качество 3d хорошее, объём глубина и вылеты присутствуют.
 

больные люди на всю башку.
 

Спасибо, охоту скачивать и смотреть отбили :)
 

Нидасматрел. Тупость невероятная, игра как в школьном театре.... Фпамойку.
 

за такие фильмы убивать надо... чтоб другим режыссёрам неповадно было.
 

фильм смерть. почитал комменты на кинопоиске, поржал, мдя, ценителей сего жанра мало.
 

Что удивляет,как только фильм смотреть почти невозможно - так сразу великолепное 3Д ! Оказ-ся можно снимать худ.кино с таким эффектом. Жаль,что тут вместо фильма тошниловка для рептилоидов. Тем не менее Маrikу - БЛАГОДАРНОСТЬ за релиз !
 

Фильм сам по себе не кассовый, зато сюжет закручен лихо, смысла в нем искать не стоит, уж точно не поучительный,в семейном кругу смотреть не стоит,3-д хорошее, не конверт.
 
Алексей "51" Профиль 18-Апр-2014 02:38

Спасибо , заинтриговали , качаю