Торренты   
 
 

 

Дети шпионов 3D - Игра окончена / Spy Kids 3D - Game Over (Robert Rodriquez/Роберт Родригес) [2003 г., фантастика, комедия, приключения, семейный, SideBySide]

Рейтинг 3D:
2 голосов
9.0
Рейтинг фильма:
2 голосов
9.0
 
Вы должны быть авторизированы,
чтобы ставить оценки


Дети шпионов 3D - Игра окончена / Spy Kids 3D - Game Over
Год выпуска: 2003
Страна: США
Жанр: фантастика, комедия, приключения, семейный
Продолжительность: 1:24:29
Перевод: Профессиональный (полное дублирование)
Режиссер: Robert Rodriquez/Роберт Родригес
В ролях: Антонио Бандерас, Карла Гуджино, Алекса Вега, Дэрил Сабара, Алан Камминг, Тони Шалуб, Тери Хэтчер, Чич Марин, Роберт Патрик, Сильвестр Сталлоне
Описание: Несовершеннолетние агенты Джуни и Кармен Кортез отправляются на выполнение нового задания. На этот раз их ждет путешествие по виртуальному миру 3-D видеоигры, разработанной для того, чтобы существа, населяющие ее явились в реальный мир. Полагаясь на юмор, всякие примочки, храбрость, семейные обязательства и молниеносную реакцию, Дети Шпионов должны проходить более и более трудные уровни игры, среди которых будут гонки с воинами дорог и серфинг в кипящей лаве. И все это для того, чтобы спасти мир от власти очередного Злодея.
Формат 3d: SideBySide
Порядок ракурсов: Перекрестная пара

MediaInfo

Код:
General
Format                           : AVI
Format/Info                      : Audio Video Interleave
File size                        : 2.76 GiB
Duration                         : 1h 24mn
Overal bit rate                  : 4669 Kbps
Writing library                  : VirtualDub build 30009/release
Video
Format                           : AVC
Format/Info                      : Advanced Video Codec
Format profile                   : High@L3.1
Format settings, CABAC           : Yes
Format settings, ReFrames        : 1 frame
Codec ID                         : AVC1
Duration                         : 1h 24mn
Bit rate                         : 4273 Kbps
Width                            : 1440 pixels
Height                           : 400 pixels
Display aspect ratio             : 3.600
Frame rate                       : 29.970 fps
Resolution                       : 24 bits
Colorimetry                      : 4:2:0
Scan type                        : Progressive
Bits/(Pixel*Frame)               : 0.248
Stream size                      : 2.52 GiB
Writing library                  : x264 core 68 r1195bm 5d75a9b
Encoding settings                : cabac=1 / ref=1 / deblock=1:0:0 / analyse=0x3:0x13 / me=umh / subme=7 / psy_rd=0.0:0.0 / mixed_ref=0 / me_range=16 / chroma_me=1 / trellis=1 / 8x8dct=1 / cqm=0 / deadzone=21,11 / chroma_qp_offset=0 / threads=6 / thread_queue=6 / nr=0 / decimate=1 / mbaff=0 / bframes=0 / keyint=250 / keyint_min=25 / scenecut=40 / rc=cqp / qp=24 / ip_ratio=1.40 / aq=0
Audio
Format                           : AC-3
Format/Info                      : Audio Coding 3
Codec ID                         : 2000
Bit rate mode                    : Constant
Bit rate                         : 384 Kbps
Channel(s)                       : 6 channels
Channel positions                : Front: L C R, Rear: L R, LFE
Sampling rate                    : 48.0 KHz
Stream size                      : 232 MiB

Скриншоты




Благодарности релизеру (0)

Торрент:

Статус:

Размер:

Зарегистрирован   [ 2010-09-10 03:25 ]

проверено

2.76 GB