Торренты   
 
 

 

Космический пират Харлок / Space Pirate Captain Harlock (Синдзи Арамаки) [2013 г., Anamorph OverUnder]

Рейтинг 3D:
18 голосов
7.4
Рейтинг фильма:
17 голосов
6.9
 
Вы должны быть авторизированы,
чтобы ставить оценки



Космический пират Харлок / Space Pirate Captain Harlock
«Is he an enemy of the state... or its last hope?»
Год выпуска: 2013
Страна: Япония, США, Франция
Жанр: мультфильм, фантастика, боевик, приключения
Продолжительность: 01:55:06
Перевод: Профессиональный (дублированный) [лицензия R5] + Ю.Живов [на расширенные сцены]
Режиссер: Синдзи Арамаки
В ролях: Шун Огури, Аои Ю, Аяно Фукуда, Арата Фурута, Киёси Кобаяси, Харума Миура, Морикава Тосиюки, Тикао Оцука, Маая Сакамото, Миюки Савасиро
Описание: Далекое будущее. Преступная корпорация Гайя стала злейшим врагом Земли, отобрав у людей все: свободу, дом, будущее… Казалось, что надежды на спасение нет… Но, появился Он — космический пират Харлок, капитан призрачного корабля Аркадия. Беглец, готовый сражаться за Землю. Кто Он, герой или преступник?..
Качество: BDrip
Контейнер: MKV
Формат 3D: Anamorph OverUnder / Вертикальная анаморфная стереопара
Порядок ракурсов: левый ракурс первый
Видео кодек: x264
Аудио кодек: AC-3
Видео: AVC, High@L4.1, 1920х1080, 23,976 кадра/сек, 6,3 Мбит/сек
Аудио:
#1 - Русский / AC3 / 48 KHz / 5.1 ch / 384 Kbps MVO (дубляж R5 + Ю.Живов [на расширенные сцены])
#2 - Японский / AC3 / 48 KHz / 5.1 ch / 448 Kbps
Субтитры: русские, английские

Скриншоты

Media Info

Общее
Уникальный идентификатор : 245431213989134281423407131845450584835 (0xB8A4551A30FD4F53B944310862B0D303)
Полное имя : H:\Source\SpacePirateCaptainHarlock.3D.2013.BDRip.Half.OU.x264.AC3.3D-RuGroup.mkv
Формат : Matroska
Версия формата : Version 4 / Version 2
Размер файла : 5,59 Гбайт
Продолжительность : 1 ч. 55 м.
Общий поток : 6950 Кбит/сек
Название фильма : Space Pirate Captain Harlock 3D-RuGroup
Дата кодирования : UTC 2014-10-12 15:04:05
Программа кодирования : mkvmerge v6.8.0 ('Theme for Great Cities') 32bit built on Mar 2 2014 21:27:07
Библиотека кодирования : libebml v1.3.0 + libmatroska v1.4.1
Видео
Идентификатор : 1
Формат : AVC
Формат/Информация : Advanced Video Codec
Профиль формата : High@L4.1
Параметр CABAC формата : Да
Параметр ReFrames формата : 4 кадра
Идентификатор кодека : V_MPEG4/ISO/AVC
Продолжительность : 1 ч. 55 м.
Битрейт : 5980 Кбит/сек
Ширина : 1920 пикселей
Высота : 1080 пикселей
Соотношение сторон : 16:9
Режим частоты кадров : Постоянный
Частота кадров : 23,976 кадра/сек
Цветовое пространство : YUV
Субдискретизация насыщенности : 4:2:0
Битовая глубина : 8 бит
Тип развёртки : Прогрессивная
Бит/(Пиксели*Кадры) : 0.120
Размер потока : 4,81 Гбайт (86%)
Библиотека кодирования : x264 core 130 r2273 b3065e6
Настройки программы : cabac=1 / ref=4 / deblock=1:-3:-3 / analyse=0x3:0x133 / me=umh / subme=10 / psy=1 / psy_rd=1.00:0.15 / mixed_ref=1 / me_range=32 / chroma_me=1 / trellis=2 / 8x8dct=1 / cqm=0 / deadzone=21,11 / fast_pskip=0 / chroma_qp_offset=-3 / threads=12 / lookahead_threads=2 / sliced_threads=0 / nr=0 / decimate=1 / interlaced=0 / bluray_compat=0 / constrained_intra=0 / bframes=8 / b_pyramid=2 / b_adapt=2 / b_bias=0 / direct=3 / weightb=1 / open_gop=0 / weightp=2 / keyint=250 / keyint_min=23 / scenecut=40 / intra_refresh=0 / rc_lookahead=60 / rc=crf / mbtree=1 / crf=16.0 / qcomp=0.60 / qpmin=0 / qpmax=69 / qpstep=4 / vbv_maxrate=50000 / vbv_bufsize=62500 / crf_max=0.0 / nal_hrd=none / ip_ratio=1.40 / aq=1:0.90
Default : Да
Forced : Нет
Аудио #1
Идентификатор : 2
Формат : AC-3
Формат/Информация : Audio Coding 3
Расширение режима : CM (complete main)
Параметр Endianness формата : Big
Идентификатор кодека : A_AC3
Продолжительность : 1 ч. 55 м.
Вид битрейта : Постоянный
Битрейт : 384 Кбит/сек
Каналы : 6 каналов
Расположение каналов : Front: L C R, Side: L R, LFE
Частота : 48,0 КГц
Битовая глубина : 16 бит
Метод сжатия : С потерями
Размер потока : 316 Мбайт (6%)
Заголовок : DDub | DD 5.1 @ 384 kbps - 5 [Мистерия Звука]
Язык : Russian
Default : Да
Forced : Нет
Аудио #2
Идентификатор : 3
Формат : AC-3
Формат/Информация : Audio Coding 3
Расширение режима : CM (complete main)
Параметр Endianness формата : Big
Идентификатор кодека : A_AC3
Продолжительность : 1 ч. 55 м.
Вид битрейта : Постоянный
Битрейт : 448 Кбит/сек
Каналы : 6 каналов
Расположение каналов : Front: L C R, Side: L R, LFE
Частота : 48,0 КГц
Битовая глубина : 16 бит
Метод сжатия : С потерями
Размер потока : 369 Мбайт (6%)
Заголовок : Original | DD 5.1 @ 448 kbps
Язык : Japanese
Default : Нет
Forced : Нет
Текст #1
Идентификатор : 4
Формат : UTF-8
Идентификатор кодека : S_TEXT/UTF8
Идентификатор кодека/Информация : UTF-8 Plain Text
Заголовок : Форсированные
Язык : Russian
Default : Да
Forced : Нет
Текст #2
Идентификатор : 5
Формат : UTF-8
Идентификатор кодека : S_TEXT/UTF8
Идентификатор кодека/Информация : UTF-8 Plain Text
Язык : Russian
Default : Нет
Forced : Нет
Текст #3
Идентификатор : 6
Формат : UTF-8
Идентификатор кодека : S_TEXT/UTF8
Идентификатор кодека/Информация : UTF-8 Plain Text
Язык : English
Default : Нет
Forced : Нет
Меню
00:02:00.453 : en:(01)00:02:00:453
00:07:42.920 : en:(02)00:07:42:920
00:14:16.897 : en:(03)00:14:16:897
00:18:00.119 : en:(04)00:18:00:119
00:24:02.315 : en:(05)00:24:02:315
00:30:51.349 : en:(06)00:30:51:349
00:40:31.053 : en:(07)00:40:31:053
00:43:42.411 : en:(08)00:43:42:411
00:49:21.500 : en:(09)00:49:21:500
00:54:03.365 : en:(10)00:54:03:365
01:06:38.244 : en:(11)01:06:38:244
01:21:25.421 : en:(12)01:21:25:421
01:23:40.557 : en:(13)01:23:40:557
01:36:55.725 : en:(14)01:36:55:725
01:41:41.512 : en:(15)01:41:41:512
01:47:42.456 : en:(16)01:47:42:456
--Релиз группы:

Проверено на встроенном плейере ТВ LG 42LW4500
--12.10.2014. Релиз обновлён - русская дорога заменена на лицензию.
Желающие, скачайте заново торрент-файл.
Благодарности релизеру (26)

Торрент:

Статус:

Размер:

Зарегистрирован   [ 2014-10-12 19:28 ]

проверено

5.59 GB

 
 Мнение о фильме (8)





шляпа та еще.но 1раз можно глянуть....
 

мне понравился !
 

шляпа ?! нету там шляпы, а мульт на любителя , любителя японского мультпроката , 3д , так себе . Всё тут так себе
 

В коллекцию.Спасибо)))
 

В сети появилась 2D версия с "чистым" звуком. А здесь звук какой?
 

Где лицензия
 

хрень!
 

выложите пожалуйста аудио дорожку лицензионую отдельно