Торренты   
 
 

 

Тайна Вестерплатте в 3Д / Tajemnica Westerplatte 3D / 1939: Battle of Westerplatte 3D (2013) [BDrip, 1080p] Anamorph OverUnder / Вертикальная анаморфная стереопара

Рейтинг 3D:
4 голосов
1.7
Рейтинг фильма:
3 голосов
1.0
 
Вы должны быть авторизированы,
чтобы ставить оценки


Тайна Вестерплатте в 3Д
Tajemnica Westerplatte 3D
1939: Battle of Westerplatte 3D
Год выпуска: 2013
Страна: Литва, Польша
Жанр: драма, военный, история
Продолжительность: 01:58:40
Перевод: Любительский (одноголосый закадровый) [den904], [Андрей Антонов]
Режиссер: Павел Хохлев
В ролях: Михал Жебровский, Роберт Жолендзевский, Ян Энглерт, Петр Адамчик, Борис Шиц, Пшемыслав Цыпрыаньски, Мирослав Зброевич, Марчин, Кравчик, Казимеж Мазур, Якуб Весоловский
Описание: Действие фильма разворачивается в сентябре 1939 года, немецкие захватчики атаковали Польшу. Полуостров Вестерплатте, был оборудован как склад боеприпасов, по этому стратегическому объекту гитлеровцы направили свой основной удар. Отважные польские солдаты, проявляя выдержку и невероятную храбрость, держали оборону целую неделю, это стало большой неожиданностью для немцев. Численность противника превосходила в несколько раз, вооруженные до зубов фашисты, при поддержке авиации и линкора все таки взяли гарнизон, но какой ценой?
Формат 3D: Anamorph OverUnder / Вертикальная анаморфная стереопара
Порядок ракурсов: левый ракурс первый
Качество: BDRip
Контейнер: MKV
Видео кодек: x264
Аудио кодек: AC3
Видео: MPEG-4 AVC, 8000 Кбит/сек, 1920х1080, 23,976 кадр/с
Аудио 1Русский / AC3 / 48 KHz / 6 каналов / 448 Кбит/сек (Любительский одноголосый [den904])
Аудио 2Русский / AC3 / 48 KHz / 2 канала / 192 Кбит/сек (Любительский одноголосый [Андрей Антонов])
Аудио 3Polish / AC3 / 48 KHz / 2 канала / 640 Кбит/сек (Original)

Скриншоты


MediaInfo

Общее
Уникальный идентификатор : 180602977685925659546678696752740968758 (0x87DEDE476828C692A018B7FAA77E2936)
Полное имя : D:\Download\1939 Battle of Westerplatte 3D 2013 BDRip 1080p halfOU (IgorekSh) [ДОЛОЙ РЕКЛАМУ!].mkv
Формат : Matroska
Версия формата : Version 2
Размер файла : 7,69 Гбайт
Продолжительность : 1 ч. 58 м.
Режим общего битрейта : Переменный
Общий поток : 9280 Кбит/сек
Название фильма : ДОЛОЙ РЕКЛАМУ!
Дата кодирования : UTC 2014-04-07 11:41:26
Программа кодирования : mkvmerge v4.0.0 ('The Stars were mine') сборка от Jun 6 2010 16:18:42
Библиотека кодирования : libebml v1.0.0 + libmatroska v1.0.0
Видео
Идентификатор : 1
Формат : AVC
Формат/Информация : Advanced Video Codec
Профиль формата : High@L4.1
MultiView_Count : 2
MultiView_Layout : Both Eye
Параметр CABAC формата : Да
Параметр ReFrames формата : 3 кадра
Идентификатор кодека : V_MPEG4/ISO/AVC
Продолжительность : 1 ч. 58 м.
Вид битрейта : Переменный
Битрейт : 8000 Кбит/сек
Максимальный битрейт : 40,0 Мбит/сек
Ширина : 1920 пикселей
Высота : 1080 пикселей
Соотношение сторон : 16:9
Режим частоты кадров : Постоянный
Частота кадров : 23,976 кадра/сек
Цветовое пространство : YUV
Субдискретизация насыщенности : 4:2:0
Битовая глубина : 8 бит
Тип развёртки : Прогрессивная
Бит/(Пиксели*Кадры) : 0.161
Размер потока : 6,48 Гбайт (84%)
Заголовок : IgorekSh [ДОЛОЙ РЕКЛАМУ!]
Библиотека кодирования : x264 core 138 r2358 9e941d1
Настройки программы : cabac=1 / ref=4 / deblock=1:-1:-1 / analyse=0x3:0x113 / me=hex / subme=7 / psy=1 / psy_rd=1.00:0.15 / mixed_ref=1 / me_range=16 / chroma_me=1 / trellis=1 / 8x8dct=1 / cqm=0 / deadzone=21,11 / fast_pskip=1 / chroma_qp_offset=-3 / threads=6 / lookahead_threads=1 / sliced_threads=0 / slices=4 / nr=10 / decimate=1 / interlaced=0 / bluray_compat=1 / constrained_intra=0 / bframes=3 / b_pyramid=1 / b_adapt=1 / b_bias=0 / direct=1 / weightb=1 / open_gop=1 / weightp=1 / keyint=24 / keyint_min=1 / scenecut=40 / intra_refresh=0 / rc_lookahead=24 / rc=2pass / mbtree=1 / bitrate=8000 / ratetol=1.0 / qcomp=0.60 / qpmin=0 / qpmax=69 / qpstep=4 / cplxblur=20.0 / qblur=0.5 / vbv_maxrate=40000 / vbv_bufsize=30000 / nal_hrd=vbr / ip_ratio=1.40 / aq=1:1.00
Язык : English
Default : Нет
Forced : Нет
Основные цвета : BT.709
Характеристики трансфера : BT.709
Коэффициенты матрицы : BT.709
Аудио #1
Идентификатор : 2
Формат : AC-3
Формат/Информация : Audio Coding 3
Расширение режима : CM (complete main)
Параметр Endianness формата : Big
Идентификатор кодека : A_AC3
Продолжительность : 1 ч. 58 м.
Вид битрейта : Постоянный
Битрейт : 448 Кбит/сек
Каналы : 6 каналов
Расположение каналов : Front: L C R, Side: L R, LFE
Частота : 48,0 КГц
Битовая глубина : 16 бит
Метод сжатия : С потерями
Размер потока : 380 Мбайт (5%)
Заголовок : ДОЛОЙ РЕКЛАМУ!
Язык : Russian
Default : Нет
Forced : Да
Аудио #2
Идентификатор : 3
Формат : AC-3
Формат/Информация : Audio Coding 3
Расширение режима : CM (complete main)
Параметр Endianness формата : Big
Идентификатор кодека : A_AC3
Продолжительность : 1 ч. 58 м.
Вид битрейта : Постоянный
Битрейт : 192 Кбит/сек
Каналы : 2 канала
Расположение каналов : Front: L R
Частота : 48,0 КГц
Битовая глубина : 16 бит
Метод сжатия : С потерями
Размер потока : 163 Мбайт (2%)
Заголовок : ДОЛОЙ РЕКЛАМУ!
Язык : Russian
Default : Нет
Forced : Нет
Аудио #3
Идентификатор : 4
Формат : AC-3
Формат/Информация : Audio Coding 3
Расширение режима : CM (complete main)
Параметр Endianness формата : Big
Идентификатор кодека : A_AC3
Продолжительность : 1 ч. 58 м.
Вид битрейта : Постоянный
Битрейт : 640 Кбит/сек
Каналы : 2 канала
Расположение каналов : Front: L R
Частота : 48,0 КГц
Битовая глубина : 16 бит
Метод сжатия : С потерями
Размер потока : 543 Мбайт (7%)
Заголовок : ДОЛОЙ РЕКЛАМУ!
Язык : Polish
Default : Нет
Forced : Нет
Меню
00:00:00.000 : :chapters
00:02:41.036 : :
00:08:24.379 : :
00:17:35.972 : :
00:24:15.954 : :
00:38:28.932 : :
00:48:29.949 : :
00:57:14.931 : :
01:11:05.761 : :
01:22:07.923 : :
01:35:20.924 : :
01:53:42.941 : :
Благодарности релизеру (4)

Торрент:

Статус:

Размер:

Зарегистрирован   [ 2014-04-09 14:28 ]

x закрыто

7.69 GB

 
Комментарии:





Фейк.
 

мастер фуфла игорек в своем репертуаре
 

IgorekSh
Наверное стоит пересмотреть свое отношение к созданию таких рипов...может что - то не так делаешь?...это конечно мое мнение...но уж больно часто тебя ругают на смежных ресурсах
 

fake you !!!
 

Топик был перенесен из форума 3D Фильмы в форум Архив

Zagruzin