Торренты   
 
 

 

Peaльнaя бeлкa в 3Д / Тhе Nut Jоb 3D (Питep Лeпeниoтис / Реtеr Lеpеniоtis) [2013, Gulfstream Pictures, Red Rover International, Toon, BDrip, 1080p]Full OverUnder / Вертикальная стереопара

Рейтинг 3D:
60 голосов
7.2
Рейтинг фильма:
61 голосов
7.2
 
Вы должны быть авторизированы,
чтобы ставить оценки


Реальная белка / The Nut Job
Год выпуска: 2013
Страна: Канада, Корея Южная, США
Студия: Universal Pictures, Open Road Films, Endgame Entertainment, RedRover Co., Toonbox Entertainment, Gulfstream Pictures
Жанр: мультфильм, комедия, приключения, семейный
Продолжительность: 01:21:56
Перевод: Профессиональный дублированный (BD Rus)
Русские субтитры: нет
Режиссер на русском: Питер Лепениотис / Peter Lepeniotis
В ролях: Уилл Арнетт, Брендан Фрейзер, Лиам Нисон, Кэтрин Хайгл, Стивен Лэнг, Майя Рудольф, Джефф Данэм, Гэбриел Иглесиас, Сара Гадон, Джеймс Ранкин
Описание: Пытаясь выжить в городе, неразлучные друзья — белка Злюк и крысёнок Бадди натыкаются на магазин, до краёв набитый их любимым лакомством — орехами. Чувствуя, что «мечты сбываются», приятели планируют величайшее ограбление в истории грызунов. Но тут совсем некстати нарисовались бедные родственники из парка — прямо 13 друзей арахиса! Однако им всем невдомёк, что магазин орехов — лишь прикрытие для банды грабителей, которые намерены вырыть туннель под банк и подменить мешки с деньгами на мешки с теми самыми орехами.
Сэмпл: http://www.sendspace.com/file/a8d9q1
Качество: BDrip
Контейнер: MKV
Формат 3D: OverUnder / Вертикальная стереопара
Порядок ракурсов: левый ракурс первый
Видео кодек: x264
Аудио кодек: AC3
Видео: AVC / High@L5.0 / 23,976 fps / 1920х2080 / 12,7 Мбит/сек
Аудио: Русский / AC3 / 48 KHz / 5.1 ch / 640 Кбит/сек (Дубляж - BD Rus) (редакция Ash61)
Аудио 2: Английский / AC3 / 48 KHz / 5.1 ch / 640 Кбит/сек
Релиз группы: ВНИМАНИЕ ! На встроенных ТВ-плеерах работать не будет!!!
Железные плееры на которых воспроизводятся полные стереопары:Popcorn C-200 , Dune HD Smart D1 , Dune HD DUO , Dune HD Smart H1 , Dune HD Smart B1 , Dune HD Max , Dune HD TV-303D , Dune HD Base 3D

25.05.14 . Релиз обновлен русская звуковая дорожка заменена на лицензию. Желающие , скачайте заново торрент-файл.

MediaInfo

Общее
Уникальный идентификатор : 197267922199123524202147142922631304035 (0x94686B7AD54600C19196FA685A0ED363)
Полное имя : E:\закачки\The Nut Job.Rip by SeRoGa00.mkv
Формат : Matroska
Версия формата : Version 2
Размер файла : 8,27 Гбайт
Продолжительность : 1 ч. 25 м.
Общий поток : 13,8 Мбит/сек
Дата кодирования : UTC 2014-05-25 07:32:30
Программа кодирования : mkvmerge v3.4.0 ('Rapunzel') сборка от May 15 2010 09:38:20
Библиотека кодирования : libebml v0.8.0 + libmatroska v0.9.0
Видео
Идентификатор : 1
Формат : AVC
Формат/Информация : Advanced Video Codec
Профиль формата : High@L5.0
Параметр CABAC формата : Да
Параметр ReFrames формата : 4 кадра
Идентификатор кодека : V_MPEG4/ISO/AVC
Продолжительность : 1 ч. 25 м.
Битрейт : 12,2 Мбит/сек
Ширина : 1920 пикселей
Высота : 2080 пикселей
Соотношение сторон : 0,923
Частота кадров : 23,976 кадра/сек
Цветовое пространство : YUV
Субдискретизация насыщенности : 4:2:0
Битовая глубина : 8 бит
Тип развёртки : Прогрессивная
Бит/(Пиксели*Кадры) : 0.128
Размер потока : 7,34 Гбайт (89%)
Заголовок : Rip by SeRoGa00
Библиотека кодирования : x264 core 138 r2356 a1d3d17
Настройки программы : cabac=1 / ref=4 / deblock=1:-3:-3 / analyse=0x3:0x113 / me=umh / subme=9 / psy=1 / psy_rd=1.00:0.15 / mixed_ref=1 / me_range=24 / chroma_me=1 / trellis=2 / 8x8dct=1 / cqm=0 / deadzone=21,11 / fast_pskip=1 / chroma_qp_offset=-3 / threads=9 / lookahead_threads=1 / sliced_threads=0 / nr=0 / decimate=1 / interlaced=0 / bluray_compat=0 / constrained_intra=0 / bframes=8 / b_pyramid=2 / b_adapt=2 / b_bias=0 / direct=3 / weightb=1 / open_gop=0 / weightp=2 / keyint=250 / keyint_min=23 / scenecut=40 / intra_refresh=0 / rc_lookahead=60 / rc=crf / mbtree=1 / crf=18.0 / qcomp=0.60 / qpmin=10 / qpmax=69 / qpstep=4 / vbv_maxrate=40000 / vbv_bufsize=40000 / crf_max=0.0 / nal_hrd=none / ip_ratio=1.40 / aq=1:1.00
Язык : English
Аудио #1
Идентификатор : 2
Формат : AC-3
Формат/Информация : Audio Coding 3
Расширение режима : CM (complete main)
Идентификатор кодека : A_AC3
Продолжительность : 1 ч. 25 м.
Вид битрейта : Постоянный
Битрейт : 640 Кбит/сек
Каналы : 6 каналов
Расположение каналов : Front: L C R, Side: L R, LFE
Частота : 48,0 КГц
Битовая глубина : 16 бит
Метод сжатия : С потерями
Размер потока : 393 Мбайт (5%)
Язык : Russian
Аудио #2
Идентификатор : 3
Формат : AC-3
Формат/Информация : Audio Coding 3
Расширение режима : CM (complete main)
Идентификатор кодека : A_AC3
Продолжительность : 1 ч. 25 м.
Вид битрейта : Постоянный
Битрейт : 640 Кбит/сек
Каналы : 6 каналов
Расположение каналов : Front: L C R, Side: L R, LFE
Частота : 48,0 КГц
Битовая глубина : 16 бит
Метод сжатия : С потерями
Размер потока : 393 Мбайт (5%)
Язык : English

Скриншоты


Остальные раздачи этого фильма (4)
Благодарности релизеру (11)

Торрент:

Статус:

Размер:

Зарегистрирован   [ 2014-05-25 18:14 ]

проверено

8.27 GB

 
 Мнение о фильме (18)





Забавный прикольный мультик, 3D неглубокое, но есть пара-тройка вылетов. Рекомендую посмотреть, включая финальные титры. По-моему, к нему еще есть и тизер прикольный, раньше кто-то выкладывал.
 

Хороший мультик, хорошее 3Д, хороший звук. Всем смотреть. Благодарю за раздачу.
 

3D не самое лучшее, а вот сам мультик замечательный! Понравился и мне и дочке! Рекомендую скачать.
 

Классный мультик, всем понравился
 

прикольный и 3д в норме
 

Скучновато. Через 10 минут выключил.
 

на плазме 120 см разницы что мини что обычный рип нет никакой. так что спасибо за мини
 

Полное дерьмо. Простите за сравнение.
 

Мультфильм понравился. Спасибо.
 

Отличный мультик. С ребенком посмотрел с удовольствием. 3д хорошее и придает картинке более привлекательный вид.
 

Хороший мульт. Спасибо.
 
Виталий Цыганов Профиль 26-Май-2014 22:40

Смотрел в 2д понравился.Скачаю поставлю оценку 3д.Спасибо)))
 

Мульт отличный, глубина тоже есть, а вот с вылетами беда, их нет там где они явно просятся.
 

отличный мультик, 3D очень достойное, не знаю на чем смотрела ИринаХ - но на samsung 8007 отлично.
 

Классный мульт спасибо
 

с профессиональным переводом отличный мульт.но мало вылетов!
 
Андре баталов Профиль 14-Июн-2014 11:41

Прикольный и 3д в норме
 

Мульт - Бомба