Торренты   
 
 

 

Реальная белка / The Nut Job [2013 г., Anamorph OverUnder]

Рейтинг 3D:
60 голосов
7.2
Рейтинг фильма:
61 голосов
7.2
 
Вы должны быть авторизированы,
чтобы ставить оценки


Реальная белка / The Nut Job
Год выпуска: 2013
Страна: Канада, Корея Южная, США
Жанр: мультфильм, комедия, приключения, семейный
Продолжительность: 01:25:54
Перевод: Профессиональный дублированный
Режиссер: Питер Лепениотис
В ролях: Уилл Арнетт, Брендан Фрейзер, Лиам Нисон, Кэтрин Хейгл, Стивен Лэнг, Майя Рудольф, Джефф Данэм, Гэбриел Иглесиас, Сара Гадон, Джеймс Ранкин
Описание: Пытаясь выжить в городе, неразлучные друзья — белка Злюк и крысёнок Бадди натыкаются на магазин, до краёв набитый их любимым лакомством — орехами. Чувствуя, что «мечты сбываются», приятели планируют величайшее ограбление в истории грызунов. Но тут совсем некстати нарисовались бедные родственники из парка — прямо 13 друзей арахиса! Однако им всем невдомёк, что магазин орехов — лишь прикрытие для банды грабителей, которые намерены вырыть туннель под банк и подменить мешки с деньгами на мешки с теми самыми орехами.
Качество: BDrip
Контейнер: MKV
Формат 3D: Anamorph OverUnder / Вертикальная анаморфная стереопара
Порядок ракурсов: левый ракурс первый
Видео кодек: x264
Аудио кодек: AC-3
Видео: AVC, High@L4.1, 1920х1080, 23,976 кадра/сек, 5986 Кбит/сек
Аудио:
#1 - Русский / AC3 / 48 KHz / 5.1 ch / 640 Kbps (редакция Ash61)
#2 - Английский / AC3 / 48 KHz / 5.1 ch / 640 Kbps
Субтитры: Русские, английские (Full + SDH + SDH-Colored)

Скриншоты

Media Info

Общее
Уникальный идентификатор : 218188888414051074318898661007416210113 (0xA425A6C06026F87F9547A7255401B2C1)
Полное имя : H:\Source\TheNutJob.3D.2013.BDrip.Half.OU.x264.AC3.(itsamna).mkv
Формат : Matroska
Версия формата : Version 4 / Version 2
Размер файла : 4,45 Гбайт
Продолжительность : 1 ч. 25 м.
Общий поток : 7412 Кбит/сек
Название фильма : The Nut Job 3D
Дата кодирования : UTC 2014-05-25 06:10:28
Программа кодирования : mkvmerge v6.8.0 ('Theme for Great Cities') 32bit built on Mar 2 2014 21:27:07
Библиотека кодирования : libebml v1.3.0 + libmatroska v1.4.1
Видео
Идентификатор : 1
Формат : AVC
Формат/Информация : Advanced Video Codec
Профиль формата : High@L4.1
Параметр CABAC формата : Да
Параметр ReFrames формата : 4 кадра
Идентификатор кодека : V_MPEG4/ISO/AVC
Продолжительность : 1 ч. 25 м.
Битрейт : 5985 Кбит/сек
Ширина : 1920 пикселей
Высота : 1080 пикселей
Соотношение сторон : 16:9
Режим частоты кадров : Постоянный
Частота кадров : 23,976 кадра/сек
Цветовое пространство : YUV
Субдискретизация насыщенности : 4:2:0
Битовая глубина : 8 бит
Тип развёртки : Прогрессивная
Бит/(Пиксели*Кадры) : 0.120
Размер потока : 3,59 Гбайт (81%)
Библиотека кодирования : x264 core 130 r2273 b3065e6
Настройки программы : cabac=1 / ref=4 / deblock=1:-3:-3 / analyse=0x3:0x133 / me=umh / subme=10 / psy=1 / psy_rd=1.00:0.15 / mixed_ref=1 / me_range=32 / chroma_me=1 / trellis=2 / 8x8dct=1 / cqm=0 / deadzone=21,11 / fast_pskip=0 / chroma_qp_offset=-3 / threads=12 / lookahead_threads=2 / sliced_threads=0 / nr=0 / decimate=1 / interlaced=0 / bluray_compat=0 / constrained_intra=0 / bframes=8 / b_pyramid=2 / b_adapt=2 / b_bias=0 / direct=3 / weightb=1 / open_gop=0 / weightp=2 / keyint=250 / keyint_min=23 / scenecut=40 / intra_refresh=0 / rc_lookahead=60 / rc=crf / mbtree=1 / crf=18.0 / qcomp=0.60 / qpmin=0 / qpmax=69 / qpstep=4 / vbv_maxrate=50000 / vbv_bufsize=62500 / crf_max=0.0 / nal_hrd=none / ip_ratio=1.40 / aq=1:0.90
Default : Да
Forced : Нет
Аудио #1
Идентификатор : 2
Формат : AC-3
Формат/Информация : Audio Coding 3
Расширение режима : CM (complete main)
Параметр Endianness формата : Big
Идентификатор кодека : A_AC3
Продолжительность : 1 ч. 25 м.
Вид битрейта : Постоянный
Битрейт : 640 Кбит/сек
Каналы : 6 каналов
Расположение каналов : Front: L C R, Side: L R, LFE
Частота : 48,0 КГц
Битовая глубина : 16 бит
Метод сжатия : С потерями
Размер потока : 393 Мбайт (9%)
Язык : Russian
Default : Да
Forced : Нет
Аудио #2
Идентификатор : 3
Формат : AC-3
Формат/Информация : Audio Coding 3
Расширение режима : CM (complete main)
Параметр Endianness формата : Big
Идентификатор кодека : A_AC3
Продолжительность : 1 ч. 25 м.
Вид битрейта : Постоянный
Битрейт : 640 Кбит/сек
Каналы : 6 каналов
Расположение каналов : Front: L C R, Side: L R, LFE
Частота : 48,0 КГц
Битовая глубина : 16 бит
Метод сжатия : С потерями
Размер потока : 393 Мбайт (9%)
Язык : English
Default : Нет
Forced : Нет
Текст #1
Идентификатор : 4
Формат : UTF-8
Идентификатор кодека : S_TEXT/UTF8
Идентификатор кодека/Информация : UTF-8 Plain Text
Язык : Russian
Default : Нет
Forced : Нет
Текст #2
Идентификатор : 5
Формат : UTF-8
Идентификатор кодека : S_TEXT/UTF8
Идентификатор кодека/Информация : UTF-8 Plain Text
Заголовок : SDH-Colored
Язык : English
Default : Нет
Forced : Нет
Текст #3
Идентификатор : 6
Формат : UTF-8
Идентификатор кодека : S_TEXT/UTF8
Идентификатор кодека/Информация : UTF-8 Plain Text
Заголовок : Full
Язык : English
Default : Нет
Forced : Нет
Текст #4
Идентификатор : 7
Формат : UTF-8
Идентификатор кодека : S_TEXT/UTF8
Идентификатор кодека/Информация : UTF-8 Plain Text
Заголовок : SDH
Язык : English
Default : Нет
Forced : Нет
Меню
00:00:00.000 : :Chapter 01
00:02:35.613 : :Chapter 02
00:05:24.574 : :Chapter 03
00:09:57.430 : :Chapter 04
00:14:58.480 : :Chapter 05
00:17:30.090 : :Chapter 06
00:22:18.837 : :Chapter 07
00:27:58.677 : :Chapter 08
00:32:01.169 : :Chapter 09
00:37:50.434 : :Chapter 10
00:40:19.041 : :Chapter 11
00:44:56.610 : :Chapter 12
00:48:14.266 : :Chapter 13
00:53:17.527 : :Chapter 14
00:58:14.991 : :Chapter 15
01:03:04.071 : :Chapter 16
01:08:48.624 : :Chapter 17
01:13:57.182 : :Chapter 18
01:19:32.058 : :Chapter 19
01:23:11.736 : :Chapter 20
01:25:54.232 : :Chapter 21
--Релиз группы:

Проверено на встроенном плейере ТВ LG 42LW4500
--25.05.2014. Релиз обновлён - русская дорога заменена на лицензию.
Желающие, скачайте заново торрент-файл.
Остальные раздачи этого фильма (4)
Благодарности релизеру (41)

Торрент:

Статус:

Размер:

Зарегистрирован   [ 2014-05-25 10:31 ]

проверено

4.45 GB

 
 Мнение о фильме (18)





Забавный прикольный мультик, 3D неглубокое, но есть пара-тройка вылетов. Рекомендую посмотреть, включая финальные титры. По-моему, к нему еще есть и тизер прикольный, раньше кто-то выкладывал.
 

Хороший мультик, хорошее 3Д, хороший звук. Всем смотреть. Благодарю за раздачу.
 

3D не самое лучшее, а вот сам мультик замечательный! Понравился и мне и дочке! Рекомендую скачать.
 

Классный мультик, всем понравился
 

прикольный и 3д в норме
 

Скучновато. Через 10 минут выключил.
 

на плазме 120 см разницы что мини что обычный рип нет никакой. так что спасибо за мини
 

Полное дерьмо. Простите за сравнение.
 

Мультфильм понравился. Спасибо.
 

Отличный мультик. С ребенком посмотрел с удовольствием. 3д хорошее и придает картинке более привлекательный вид.
 

Хороший мульт. Спасибо.
 
Виталий Цыганов Профиль 26-Май-2014 22:40

Смотрел в 2д понравился.Скачаю поставлю оценку 3д.Спасибо)))
 

Мульт отличный, глубина тоже есть, а вот с вылетами беда, их нет там где они явно просятся.
 

отличный мультик, 3D очень достойное, не знаю на чем смотрела ИринаХ - но на samsung 8007 отлично.
 

Классный мульт спасибо
 

с профессиональным переводом отличный мульт.но мало вылетов!
 
Андре баталов Профиль 14-Июн-2014 11:41

Прикольный и 3д в норме
 

Мульт - Бомба