Торренты   
 
 

 

Приключения мышонка в 3Д / Rodencia y el Diente de la Princesa 3D (2013) [miniBDRip, 720p] Half OverUnder / Вертикальная анаморфная стереопара

Рейтинг 3D:
2 голосов
8.0
Рейтинг фильма:
2 голосов
7.0
 
Вы должны быть авторизированы,
чтобы ставить оценки


Приключения мышонка в 3Д / Rodencia y el Diente de la Princesa 3D
Год выпуска: 2013
Страна: Перу, Аргентина
Жанр: Мультфильм, мюзикл, комедия, семейный, полнометражный
Продолжительность: 01:31:02
Перевод: Профессиональный (полное дублирование)
Режиссер: Давид Бисбано
В ролях: Эрнан Браво, Наталия Росминати, Рикардо Эланис, Энрике Порсейана, Серджо Бермехо, Освальдо Салас, Гонсало Уртисбереа, Марсело Чиринос,Хосе Луис Пертикарини, Мария Елена Молина
Описание: Давным-давно, в густых и широких лесах стояло прекрасное королевство Роденсия — место, где обитали удивительные создания и могущественные волшебники. Приключение, которое произойдёт здесь, расскажет нам о любви между неуклюжим учеником мага маленьким мышонком Эдамом и красивой и уверенной мышкой Бри, которым придётся преодолеть много опасных препятствий, для того чтобы получить силу зубной феи и победить отряд крыс под командованием злого Ротекса, который вторгся в мирное мышиное царство. В таинственной глубине леса магия света и тьмы, любви и обиды столкнутся, а Эдам и Ротекс будут сражаться, и только один выйдет победителем.
Формат 3D: Half OverUnder / Вертикальная анаморфная стереопара
Порядок ракурсов: левый ракурс первый
Качество: miniBDRip
Контейнер: MKV
Видео кодек: x264
Аудио кодек: AC3
Видео: MPEG-4 AVC, 1800 Кбит/сек, 1280х720, 23,976 кадр/с
Аудио: Русский / AC3 / 48 KHz / 6 ch / 640 Kbps (Дубляж - BD 3D CEE)

Скриншоты


MediaInfo

Общее
Уникальный идентификатор : 202099616883303178240492511690516330157 (0x980AF86B8296EFD08B78EF4568F3F6AD)
Полное имя : D:\Download\Rodencia y el Diente de la Princesa 3D 2013 miniBDRip 720p halfOU (IgorekSh) [ДОЛОЙ РЕКЛАМУ!].mkv
Формат : Matroska
Версия формата : Version 2
Размер файла : 1,49 Гбайт
Продолжительность : 1 ч. 27 м.
Общий поток : 2440 Кбит/сек
Название фильма : ДОЛОЙ РЕКЛАМУ!
Дата кодирования : UTC 2014-04-07 12:19:54
Программа кодирования : mkvmerge v4.0.0 ('The Stars were mine') сборка от Jun 6 2010 16:18:42
Библиотека кодирования : libebml v1.0.0 + libmatroska v1.0.0
Видео
Идентификатор : 1
Формат : AVC
Формат/Информация : Advanced Video Codec
Профиль формата : High@L4.1
Параметр CABAC формата : Да
Параметр ReFrames формата : 4 кадра
Идентификатор кодека : V_MPEG4/ISO/AVC
Продолжительность : 1 ч. 27 м.
Битрейт : 1800 Кбит/сек
Ширина : 1280 пикселей
Высота : 720 пикселей
Соотношение сторон : 16:9
Режим частоты кадров : Постоянный
Частота кадров : 23,976 кадра/сек
Цветовое пространство : YUV
Субдискретизация насыщенности : 4:2:0
Битовая глубина : 8 бит
Тип развёртки : Прогрессивная
Бит/(Пиксели*Кадры) : 0.081
Размер потока : 1,07 Гбайт (72%)
Заголовок : IgorekSh [ДОЛОЙ РЕКЛАМУ!]
Библиотека кодирования : x264 core 138 r2358 9e941d1
Настройки программы : cabac=1 / ref=1 / deblock=1:1:1 / analyse=0x3:0x3 / me=dia / subme=1 / psy=1 / psy_rd=0.40:0.00 / mixed_ref=0 / me_range=16 / chroma_me=1 / trellis=0 / 8x8dct=1 / cqm=0 / deadzone=21,11 / fast_pskip=1 / chroma_qp_offset=0 / threads=6 / lookahead_threads=1 / sliced_threads=0 / nr=0 / decimate=1 / interlaced=0 / bluray_compat=0 / constrained_intra=0 / bframes=5 / b_pyramid=2 / b_adapt=1 / b_bias=0 / direct=1 / weightb=1 / open_gop=0 / weightp=1 / keyint=240 / keyint_min=23 / scenecut=40 / intra_refresh=0 / rc_lookahead=0 / rc=2pass / mbtree=0 / bitrate=1800 / ratetol=1.0 / qcomp=0.60 / qpmin=0 / qpmax=69 / qpstep=4 / cplxblur=20.0 / qblur=0.5 / vbv_maxrate=40000 / vbv_bufsize=30000 / nal_hrd=none / ip_ratio=1.40 / pb_ratio=1.30 / aq=1:0.60
Язык : Spanish
Default : Нет
Forced : Нет
Аудио
Идентификатор : 2
Формат : AC-3
Формат/Информация : Audio Coding 3
Расширение режима : CM (complete main)
Параметр Endianness формата : Big
Идентификатор кодека : A_AC3
Продолжительность : 1 ч. 27 м.
Вид битрейта : Постоянный
Битрейт : 640 Кбит/сек
Каналы : 6 каналов
Расположение каналов : Front: L C R, Side: L R, LFE
Частота : 48,0 КГц
Битовая глубина : 16 бит
Метод сжатия : С потерями
Размер потока : 401 Мбайт (26%)
Заголовок : ДОЛОЙ РЕКЛАМУ!
Язык : Russian
Default : Нет
Forced : Нет
Благодарности релизеру (0)

Торрент:

Статус:

Размер:

Зарегистрирован   [ 2014-04-14 15:17 ]

проверено

1.49 GB