Торренты   
 
 

 

Караоке в 3Д / Karaoke 3D (2014) [Chinese, 1080p] Half SideBySide / Горизонтальная анаморфная стереопара

Рейтинг 3D:
1 голосов
8.0
Рейтинг фильма:
1 голосов
6.0
 
Вы должны быть авторизированы,
чтобы ставить оценки


Караоке в 3Д / Karaoke 3D
Год выпуска: 2014
Страна: Китай
Жанр: музыка, караоке
Продолжительность: 18 x ∼ 00:03:30
Перевод: Отсутствует (не требуется)
Описание: Караоке вместе с симпатичными девушками на фоне красивой природы.
Формат 3D: Half SideBySide / Горизонтальная анаморфная стереопара
Порядок ракурсов: левый ракурс первый
Контейнер: MPEG-4
Видео кодек: AVC
Аудио кодек: AAC
Видео: MPEG-4 AVC, ∼ 6350 Кбит/с, 1920х1080, 23,976 кадр/с
Аудио: Chinese / AC3 / 44,1 KHz / 2 ch / 128 Kbps (Original)

Скриншоты






MediaInfo одного из файлов (остальные отличаются только размером)

Общее
Полное имя : D:\Download\Karaoke 3D MTV \3D MTV (02).mp4
Формат : MPEG-4
Профиль формата : Base Media
Идентификатор кодека : isom
Размер файла : 166 Мбайт
Продолжительность : 3 м. 33 с.
Режим общего битрейта : Переменный
Общий поток : 6517 Кбит/сек
Дата кодирования : UTC 2012-07-01 23:27:09
Дата пометки : UTC 2012-07-01 23:27:09
Видео
Идентификатор : 1
Формат : AVC
Формат/Информация : Advanced Video Codec
Профиль формата : High@L4.0
Параметр CABAC формата : Да
Параметр ReFrames формата : 2 кадра
Параметр GOP формата : M=3, N=15
Идентификатор кодека : avc1
Идентификатор кодека/Информация : Advanced Video Coding
Продолжительность : 3 м. 33 с.
Вид битрейта : Переменный
Битрейт : 6385 Кбит/сек
Максимальный битрейт : 7000 Кбит/сек
Ширина : 1920 пикселей
Высота : 1080 пикселей
Соотношение сторон : 16:9
Режим частоты кадров : Постоянный
Частота кадров : 30,000 кадров/сек
Стандарт вещания : NTSC
Цветовое пространство : YUV
Субдискретизация насыщенности : 4:2:0
Битовая глубина : 8 бит
Тип развёртки : Прогрессивная
Бит/(Пиксели*Кадры) : 0.103
Размер потока : 163 Мбайт (98%)
Язык : English
Дата кодирования : UTC 2012-07-01 23:27:09
Дата пометки : UTC 2012-07-01 23:27:09
Основные цвета : BT.709
Характеристики трансфера : BT.709
Коэффициенты матрицы : BT.709
Аудио
Идентификатор : 2
Формат : AAC
Формат/Информация : Advanced Audio Codec
Профиль формата : LC
Идентификатор кодека : 40
Продолжительность : 3 м. 33 с.
Вид битрейта : Постоянный
Битрейт : 128 Кбит/сек
Каналы : 2 канала
Расположение каналов : Front: L R
Частота : 44,1 КГц
Метод сжатия : С потерями
Размер потока : 3,27 Мбайт (2%)
Язык : English
Дата кодирования : UTC 2012-07-01 23:27:09
Дата пометки : UTC 2012-07-01 23:27:09
Благодарности релизеру (3)

Торрент:

Статус:

Размер:

Зарегистрирован   [ 2014-04-16 18:57 ]

проверено

4.94 GB

 
 Мнение о фильме (2)





Нужно начинать учить Китайские песни :)
 

voodooas, да вы что, смеётесь что ли,? У них же даже имена на чисто русско-матерном, уж не говорю об остальном... :))